Уотергейт. Крушение Белого дома / Mark Felt: The Man Who Brought Down the White House (Питер Ландесман) [2017, триллер, драма, биография, история, BDRip 1080p | iTunes]

Ответить на тему
Статистика раздачи [Обновить пиров]
Размер:  10,32 GB   |    Зарегистрирован:  8 месяцев 13 дней   |    .torrent скачан:  4 раза
Сидов:  158  [  0 KB/s  ]   Личеров:  7  [  0 KB/s  ]   Подробная статистика пиров
 
   
 
 
Автор Сообщение

Skorp10n ®

Оффлайн

 Активный раздающий 1 Активный раздающий 2
 Активный релизер 1000 Активный релизер 1500 Активный релизер 2000 Активный релизер 250 Активный релизер 3000 Активный релизер 500 Активный релизер 5000 Активный релизер Фильмов (300) Активный релизер Фильмов (600) Активный Форумчанин 1 Активный Форумчанин 2 Активный Форумчанин 3 Активный Форумчанин 4 Друг трекера Карма 1000 Карма 1500 Карма 500 Меценат Ни дня без новостей Орденосец 1 степени Орденосец 2 степени Орденосец 3 степени Почетный орденосец Почетный репортер С Новым 2016 Годом! С Новым 2017 Годом! С Новым 2018 Годом! Супер Мега Контер Квейк ТОП-10

Пол: Мужской

Стаж: 3 года 1 месяц

Наличие запрета:

Сообщений: 6421

Откуда: Казахстан, Караганда

Отдача: не определено

Загрузка: не определено

Нажми

Создавать темы 09-Янв-2018 11:56

[Цитировать]

Информация о фильме- Название: Уотергейт. Крушение Белого дома
Оригинальное название: Mark Felt: The Man Who Brought Down the White House
Год выхода: 2017
Жанр: Триллер, драма, биография, история
Режиссер: Питер Ландесман
В ролях: Лиам Нисон, Дайан Лэйн, Мартон Чокаш, Тони Голдуин, Айк Баринхолц, Джош Лукас, Венди МакЛендон-Кови, Кейт Уолш, Брайан Д Арси Джеймс, Майка Монро-О фильме:-Фильм о главном звене самого громкого скандала ХХ века «Уотергейт», который привел к преждевременной отставке президента Ричарда Никсона. Личность человека, передававшего прессе обличительную информацию на главу государства, долгое время была окутана тайной и установлена лишь спустя 30 лет после его собственного признания. Шокирующая невероятная история, основанная на реальных событиях, о жизни блестящего и бескомпромиссного Заместителя Начальника ФБР Марка Фелта, который пожертвовал всем — своей семьей, своей карьерой и своей свободой, чтобы мир узнал правду.- -Страна: США
Студия: Endurance Media, MadRiver Pictures, Playtone, Riverstone Pictures, Scott Free Productions, Torridon Films
Продолжительность: 01:42:57
Перевод: Профессиональный (многоголосый, закадровый) | iTunes-Файл-Кодек: MPEG-4 AVC
Качество: BDRip 1080p | iTunes
Видео: AVC, 1920x960, 12.5 Mbps, 23.976 fps
Звук:
Аудио 1: AC3, 6 ch, 384 Kbps - Русский
Аудио 2: DTS, 6 ch, 1509 Kbps - Английский
Субтитры: Английские-

Mediainfo

-General
Unique ID : 200474618013198643122849490833153609200 (0x96D201CA3C53E3BAA156B86A359A4DF0)
Complete name : Down the White House.2017.BDRip.1080p.mkv
Format : Matroska
Format version : Version 4 / Version 2
File size : 10.3 GiB
Duration : 1 h 42 min
Overall bit rate : 14.3 Mb/s
Encoded date : UTC 2018-01-08 21:03:10
Writing application : mkvmerge v17.0.0 ('Be Ur Friend') 64-bit
Writing library : libebml v1.3.5 + libmatroska v1.4.8
Video
ID : 1
Format : AVC
Format/Info : Advanced Video Codec
Format profile : [email protected]
Format settings, CABAC : Yes
Format settings, RefFrames : 4 frames
Codec ID : V_MPEG4/ISO/AVC
Duration : 1 h 42 min
Bit rate : 12.5 Mb/s
Width : 1 920 pixels
Height : 960 pixels
Display aspect ratio : 2.000
Frame rate mode : Constant
Frame rate : 23.976 (24000/1001) FPS
Color space : YUV
Chroma subsampling : 4:2:0
Bit depth : 8 bits
Scan type : Progressive
Bits/(Pixel*Frame) : 0.282
Stream size : 8.95 GiB (87%)
Writing library : x264 core 142 r2431+42 c69a006 tMod [[email protected]:2:0 X86]
Encoding settings : cabac=1 / ref=4 / deblock=1:-3:-3 / analyse=0x3:0x133 / me=umh / subme=10 / psy=1 / fade_compensate=0.00 / psy_rd=1.00:0.00 / mixed_ref=1 / me_range=48 / chroma_me=1 / trellis=2 / 8x8dct=1 / cqm=0 / deadzone=21,11 / fast_pskip=0 / chroma_qp_offset=-2 / threads=12 / lookahead_threads=1 / sliced_threads=0 / nr=0 / decimate=0 / interlaced=0 / bluray_compat=0 / constrained_intra=0 / fgo=0 / bframes=6 / b_pyramid=2 / b_adapt=2 / b_bias=0 / direct=3 / weightb=0 / open_gop=0 / weightp=2 / keyint=230 / keyint_min=22 / scenecut=40 / intra_refresh=0 / rc_lookahead=60 / rc=2pass / mbtree=1 / bitrate=12453 / ratetol=1.0 / qcomp=0.60 / qpmin=0:0:0 / qpmax=69:69:69 / qpstep=4 / cplxblur=20.0 / qblur=0.5 / vbv_maxrate=50000 / vbv_bufsize=50000 / nal_hrd=none / filler=0 / ip_ratio=1.40 / aq=1:1.00 / aq-sensitivity=10.00 / aq-factor=1.00:1.00:1.00 / aq2=0 / aq3=0
Language : English
Default : Yes
Forced : No
Audio #1
ID : 2
Format : AC-3
Format/Info : Audio Coding 3
Format settings, Endianness : Big
Codec ID : A_AC3
Duration : 1 h 42 min
Bit rate mode : Constant
Bit rate : 384 kb/s
Channel(s) : 6 channels
Channel positions : Front: L C R, Side: L R, LFE
Sampling rate : 48.0 kHz
Frame rate : 31.250 FPS (1536 SPF)
Bit depth : 16 bits
Compression mode : Lossy
Stream size : 282 MiB (3%)
Language : Russian
Service kind : Complete Main
Default : Yes
Forced : No
Audio #2
ID : 3
Format : DTS
Format/Info : Digital Theater Systems
Mode : 16
Format settings, Endianness : Big
Codec ID : A_DTS
Duration : 1 h 42 min
Bit rate mode : Constant
Bit rate : 1 509 kb/s
Channel(s) : 6 channels
Channel positions : Front: L C R, Side: L R, LFE
Sampling rate : 48.0 kHz
Frame rate : 93.750 FPS (512 SPF)
Bit depth : 16 bits
Compression mode : Lossy
Stream size : 1.09 GiB (11%)
Language : English
Default : No
Forced : No
Text
ID : 4
Format : UTF-8
Codec ID : S_TEXT/UTF8
Codec ID/Info : UTF-8 Plain Text
Duration : 1 h 37 min
Bit rate : 60 b/s
Count of elements : 1180
Stream size : 43.2 KiB (0%)
Language : English
Default : No
Forced : No
Menu
00:00:00.000 : en:Chapter 1
00:08:38.226 : en:Chapter 2
00:15:54.078 : en:Chapter 3
00:21:22.823 : en:Chapter 4
00:33:01.396 : en:Chapter 5
00:36:17.508 : en:Chapter 6
00:47:14.039 : en:Chapter 7
00:56:39.270 : en:Chapter 8
01:03:02.945 : en:Chapter 9
01:10:16.420 : en:Chapter 10
01:13:50.551 : en:Chapter 11
01:17:03.827 : en:Chapter 12
01:21:09.239 : en:Chapter 13
01:26:26.306 : en:Chapter 14
01:29:31.032 : en:Chapter 15
01:35:10.579 : en:Chapter 16-
-

Скриншоты

--
-
[free-tor.com].t14367.torrent 
Торрент: Зарегистрирован [ 2018-01-09 11:56 ] · 4D067914CA960649ACD65AD34C55C249892C1680

Скачать .torrent

Скачать .torrent

52 KB

Статус: проверено
.torrent скачан: 4 раз
Размер: 10,32 GB
Правила
Volodymyr(09-Янв-18)
Похожие темы
[Профиль] [ЛС]
Показать сообщения:    
Ответить на тему

Текущее время: 23-Сен 01:31

Часовой пояс: UTC + 4



Вы не можете начинать темы
Вы не можете отвечать на сообщения
Вы не можете редактировать свои сообщения
Вы не можете удалять свои сообщения
Вы не можете голосовать в опросах
Вы не можете прикреплять файлы к сообщениям
Вы можете скачивать файлы
Анализ веб сайтов Яндекс.Метрика Рейтинг@Mail.ru