Европа / Europa Report (Себастьян Кордеро) [2012, фантастика, триллер, BDRip-AVC] [iTunes]

Ответить на тему
 
Автор Сообщение

blacKK ®

Оффлайн

 Активный релизер 250 Активный релизер 500
 Друг трекера

Пол: Мужской

Стаж: 1 год 3 месяца

Наличие запрета:

Сообщений: 777

Откуда: Москва

Отдача: 2 Mb/s

Загрузка: 20 Mb/s

Нажми

Создавать темы 13-Окт-2015 15:57

[Цитировать]

Европа / Europa Report«Fear. Sacrifice. Contact»-
Год выпуска: 2012
Страна: США
Жанр: фантастика, триллер
Продолжительность: 01:30:25
Перевод: Профессиональный (дублированный) [iTunes]
Субтитры: русские,английские
Режиссер: Себастьян Кордеро
В ролях: Кристиан Камарго / Christian Camargo (Daniel Luxembourg), Анамария Маринка / Anamaria Marinca (Rosa Dasque), Микаэл Нюквист / Michael Nyqvist (Andrei Blok), Дэниэл Ву / Daniel Wu (William Xu), Каролина Выдра / Karolina Wydra (Katya Petrovna), Шарлто Копли / Sharlto Copley (James Corrigan), Эмбет Дэвидц / Embeth Davidtz (Dr. Unger), Исайя Уитлок мл. / Isiah Whitlock Jr. (Dr. Pamuk)

Описание: Фильм повествует о международной космической экспедиции к шестому спутнику Юпитера, которую снаряжает некая частная корпорация. Цель полёта — высадиться на поверхность Европы, в подлёдном океане которой учёные теоретически предполагают наличие жизни.
Рейтинг MPAA: Детям до 13 лет просмотр не желателен-- --Качество: BDRip-AVC
Формат: MKV
Видео кодек: H.264 (AVC)
Аудио кодеk: AC3
Видео: 1024 x 576 (16:9) at 23.976 fps AVC at 2556 Кбит/сек
Аудио: Аудио #1: AC3 Dolby Digital; 384 kbps; 6 Ch; 48 kHz
Аудио #2: AC3 Dolby Digital; 448 kbps; 6 Ch; 48 kHz (Eng)

МедиаИнфо

General
Unique ID : 201677940196852237392502552006847829929 (0x97B9C22778011DD58DBA824D189317A9)
Complete name : F:\Фильмы\Европа 2.15\Evropa.2013.BDRip.x264.mkv
Format : Matroska
Format version : Version 4 / Version 2
File size : 2.15 GiB
Duration : 1h 30mn
Overall bit rate : 3 399 Kbps
Movie name : Europa Report
Encoded date : UTC 2014-03-18 16:03:48
Writing application : mkvmerge v5.9.0 ('On The Loose') built on Dec 15 2012 16:39:58
Writing library : libebml v1.3.0 + libmatroska v1.4.0
Video
ID : 1
Format : AVC
Format/Info : Advanced Video Codec
Format profile : High@L4.1
Format settings, CABAC : Yes
Format settings, ReFrames : 12 frames
Codec ID : V_MPEG4/ISO/AVC
Duration : 1h 30mn
Bit rate : 2 565 Kbps
Width : 1 024 pixels
Height : 576 pixels
Display aspect ratio : 16:9
Frame rate mode : Constant
Frame rate : 23.976 fps
Color space : YUV
Chroma subsampling : 4:2:0
Bit depth : 8 bits
Scan type : Progressive
Bits/(Pixel*Frame) : 0.181
Stream size : 1.58 GiB (74%)
Writing library : x264 core 130 r2273 b3065e6
Encoding settings : cabac=1 / ref=12 / deblock=1:-3:-3 / analyse=0x3:0x133 / me=umh / subme=11 / psy=1 / psy_rd=1.05:0.00 / mixed_ref=1 / me_range=32 / chroma_me=1 / trellis=2 / 8x8dct=1 / cqm=0 / deadzone=21,11 / fast_pskip=0 / chroma_qp_offset=-2 / threads=12 / lookahead_threads=3 / sliced_threads=0 / nr=0 / decimate=0 / interlaced=0 / bluray_compat=0 / constrained_intra=0 / bframes=13 / b_pyramid=2 / b_adapt=2 / b_bias=0 / direct=3 / weightb=1 / open_gop=0 / weightp=2 / keyint=240 / keyint_min=23 / scenecut=40 / intra_refresh=0 / rc_lookahead=60 / rc=2pass / mbtree=0 / bitrate=2565 / ratetol=1.0 / qcomp=0.70 / qpmin=0 / qpmax=69 / qpstep=4 / cplxblur=20.0 / qblur=0.5 / vbv_maxrate=20000 / vbv_bufsize=25000 / nal_hrd=none / ip_ratio=1.35 / pb_ratio=1.25 / aq=1:0.90
Language : English
Default : Yes
Forced : No
Audio #1
ID : 2
Format : AC-3
Format/Info : Audio Coding 3
Mode extension : CM (complete main)
Format settings, Endianness : Big
Codec ID : A_AC3
Duration : 1h 30mn
Bit rate mode : Constant
Bit rate : 384 Kbps
Channel(s) : 6 channels
Channel positions : Front: L C R, Side: L R, LFE
Sampling rate : 48.0 KHz
Bit depth : 16 bits
Compression mode : Lossy
Stream size : 248 MiB (11%)
Title : Dub | DD 5.1 @ 384 kbps - iTunes
Language : Russian
Default : Yes
Forced : Yes
Audio #2
ID : 3
Format : AC-3
Format/Info : Audio Coding 3
Mode extension : CM (complete main)
Format settings, Endianness : Big
Codec ID : A_AC3
Duration : 1h 30mn
Bit rate mode : Constant
Bit rate : 448 Kbps
Channel(s) : 6 channels
Channel positions : Front: L C R, Side: L R, LFE
Sampling rate : 48.0 KHz
Bit depth : 16 bits
Compression mode : Lossy
Stream size : 290 MiB (13%)
Title : Original | DD 5.1 @ 448 kbps
Language : English
Default : No
Forced : No
Text #1
ID : 4
Format : UTF-8
Codec ID : S_TEXT/UTF8
Codec ID/Info : UTF-8 Plain Text
Title : Full
Language : Russian
Default : No
Forced : No
Text #2
ID : 5
Format : UTF-8
Codec ID : S_TEXT/UTF8
Codec ID/Info : UTF-8 Plain Text
Title : SDH
Language : Russian
Default : No
Forced : No
Text #3
ID : 6
Format : UTF-8
Codec ID : S_TEXT/UTF8
Codec ID/Info : UTF-8 Plain Text
Title : Full
Language : English
Default : No
Forced : No
Text #4
ID : 7
Format : UTF-8
Codec ID : S_TEXT/UTF8
Codec ID/Info : UTF-8 Plain Text
Title : SDH
Language : English
Default : No
Forced : No
Text #5
ID : 8
Format : UTF-8
Codec ID : S_TEXT/UTF8
Codec ID/Info : UTF-8 Plain Text
Title : SDH / COLORED
Language : English
Default : No
Forced : No
Menu
00:00:00.000 : en:00:00:00.000
00:07:24.944 : en:00:07:24.944
00:15:46.987 : en:00:15:46.987
00:22:05.490 : en:00:22:05.490
00:28:40.218 : en:00:28:40.218
00:34:55.718 : en:00:34:55.718
00:40:22.253 : en:00:40:22.253
00:51:24.081 : en:00:51:24.081
00:59:42.996 : en:00:59:42.996
01:09:13.649 : en:01:09:13.649
01:18:32.332 : en:01:18:32.332
01:24:27.145 : en:01:24:27.145
01:30:25.086 : en:01:30:25.086

Знаете ли Вы, что...

★ Сценарий был написан по мотивам романа Артура Кларка «2010: Одиссея Два».
★ Съемки проходили в Бруклине.

Скриншоты

[Профиль] [ЛС]
Показать сообщения:    
Ответить на тему

Текущее время: 11-Дек 10:03

Часовой пояс: UTC + 4



Вы не можете начинать темы
Вы не можете отвечать на сообщения
Вы не можете редактировать свои сообщения
Вы не можете удалять свои сообщения
Вы не можете голосовать в опросах
Вы не можете прикреплять файлы к сообщениям
Вы не можете скачивать файлы
Анализ веб сайтов Яндекс.Метрика Рейтинг@Mail.ru