Балерина / Ballerina (Эрик Саммер, Эрик Уорин) [2016 г., Мультфильм, мюзикл, приключения, семейный, полнометражный, BDRip 720p] Лицензия

Ответить на тему
Статистика раздачи
Размер:  2,79 GB   |    Зарегистрирован:  5 дней   |    .torrent скачан:  2 раза
Сидов:  107  [  0 KB/s  ]   Личеров:  8  [  0 KB/s  ]   Подробная статистика пиров
 
   
 
 
Автор Сообщение

Husky ®

Онлайн



Пол: Мужской

Стаж: 2 года 7 месяцев

Наличие запрета:

Сообщений: 105

Откуда: 21 RUS

Отдача: 2 Mb/s

Загрузка: 20 Mb/s

Нажми

Создавать темы 14-Ноя-2017 12:28

[Цитировать]

Балерина / Ballerina-
Год выхода: 2016
Страна: Франция, Канада
Жанр: Мультфильм, мюзикл, приключения, семейный, полнометражный
Продолжительность: 01:29:06
Перевод: Профессиональный (полное дублирование) Лицензия
Субтитры: Отсутствуют-Режиссер: Эрик Саммер, Эрик Уорин-В ролях: Элль Фэннинг, Дэйн ДеХаан, Мэдди Зиглер, Карли Рэй Джепсен, Камилль Коттен, Элана Дункельман, Джули Ханер, Кэйси Чейз, Шошана Спелинг, Лорен Морель-Описание: События развернутся вокруг маленькой сиротки, которая, следуя за мечтой стать балериной, приезжает в Париж в 1879 году. Скорее всего, мультфильм о простой девочке, грезящей о карьере балерины, и готовой ради осуществления мечты на многочасовые упражнения, понравится только юным зрительницам. И дело тут не в том, что эта детская постановка покажется мальчишкам довольно банальной и несколько ограниченной по теме. Просто такое музыкальное зрелище, где много танцев и все разговоры только о батманах и плие, больше придется по душе младшим школьницам, занимающимся хореографией или наблюдающим за творчеством других.- -Качество: BDRip 720p
Формат: AVI
Видео кодек: AVC
Аудио кодек: AC3
Видео: 1280x536, 24.000 fps, 3185 Кбит/с
Аудио 1: 448 kb/s, 6 ch, 48.0 KHz - Русский
Аудио 2: 448 kb/s, 6 ch, 48.0 KHz - Французский
Аудио 3: 384 kb/s, 6 ch, 48.0 KHz - Украинский

MediaInfo

General
Unique ID : 224134596405926171822837059021920337879 (0xA89EC0C9CB43A55C935E6B466F90FFD7)
Complete name : D:Balerina.2016.BDRip.720p.ExKinoRay.mkv
Format : Matroska
Format version : Version 2
File size : 2.79 GiB
Duration : 1 h 29 min
Overall bit rate : 4 440 kb/s
Movie name : Ballerina 2016 from ExKinoRay
Encoded date : UTC 2017-11-13 21:34:12
Writing application : mkvmerge v5.6.0 ('Kenya Kane') built on May 27 2012 16:44:04
Writing library : libebml v1.2.3 + libmatroska v1.3.0
Video
ID : 1
Format : AVC
Format/Info : Advanced Video Codec
Format profile : [email protected]
Format settings, CABAC : Yes
Format settings, ReFrames : 12 frames
Codec ID : V_MPEG4/ISO/AVC
Duration : 1 h 29 min
Bit rate : 3 185 kb/s
Width : 1 280 pixels
Height : 536 pixels
Display aspect ratio : 2.40:1
Frame rate mode : Constant
Frame rate : 24.000 FPS
Color space : YUV
Chroma subsampling : 4:2:0
Bit depth : 8 bits
Scan type : Progressive
Bits/(Pixel*Frame) : 0.193
Stream size : 1.93 GiB (69%)
Title : Enigma
Writing library : x264 core 144 r2525 40bb568
Encoding settings : cabac=1 / ref=12 / deblock=1:-2:-2 / analyse=0x3:0x113 / me=umh / subme=10 / psy=1 / psy_rd=1.03:0.10 / mixed_ref=1 / me_range=32 / chroma_me=1 / trellis=2 / 8x8dct=1 / cqm=0 / deadzone=21,11 / fast_pskip=1 / chroma_qp_offset=-3 / threads=12 / lookahead_threads=3 / sliced_threads=0 / nr=0 / decimate=0 / interlaced=0 / bluray_compat=0 / constrained_intra=0 / bframes=10 / b_pyramid=2 / b_adapt=2 / b_bias=0 / direct=3 / weightb=1 / open_gop=0 / weightp=2 / keyint=240 / keyint_min=24 / scenecut=40 / intra_refresh=0 / rc_lookahead=40 / rc=2pass / mbtree=0 / bitrate=3185 / ratetol=1.0 / qcomp=0.60 / qpmin=0 / qpmax=51 / qpstep=4 / cplxblur=20.0 / qblur=0.5 / vbv_maxrate=50000 / vbv_bufsize=62500 / nal_hrd=none / filler=0 / ip_ratio=1.40 / pb_ratio=1.30 / aq=1:1.00
Language : English
Default : Yes
Forced : No
Color range : Limited
Color primaries : BT.709
Transfer characteristics : BT.709
Matrix coefficients : BT.709
Audio #1
ID : 2
Format : AC-3
Format/Info : Audio Coding 3
Mode extension : CM (complete main)
Format settings, Endianness : Big
Codec ID : A_AC3
Duration : 1 h 29 min
Bit rate mode : Constant
Bit rate : 448 kb/s
Channel(s) : 6 channels
Channel positions : Front: L C R, Side: L R, LFE
Sampling rate : 48.0 kHz
Frame rate : 31.250 FPS (1536 spf)
Compression mode : Lossy
Stream size : 288 MiB (10%)
Title : Dub (BD Rus)
Language : Russian
Default : Yes
Forced : No
Audio #2
ID : 3
Format : AC-3
Format/Info : Audio Coding 3
Mode extension : CM (complete main)
Format settings, Endianness : Big
Codec ID : A_AC3
Duration : 1 h 29 min
Bit rate mode : Constant
Bit rate : 384 kb/s
Channel(s) : 6 channels
Channel positions : Front: L C R, Side: L R, LFE
Sampling rate : 48.0 kHz
Frame rate : 31.250 FPS (1536 spf)
Compression mode : Lossy
Stream size : 247 MiB (9%)
Title : iTunes
Language : Ukrainian
Default : No
Forced : No
Audio #3
ID : 4
Format : AC-3
Format/Info : Audio Coding 3
Mode extension : CM (complete main)
Format settings, Endianness : Big
Codec ID : A_AC3
Duration : 1 h 29 min
Bit rate mode : Constant
Bit rate : 448 kb/s
Channel(s) : 6 channels
Channel positions : Front: L C R, Side: L R, LFE
Sampling rate : 48.0 kHz
Frame rate : 31.250 FPS (1536 spf)
Compression mode : Lossy
Stream size : 288 MiB (10%)
Language : French
Default : No
Forced : No
Menu
00:00:00.000 : en:00:00:00.000
00:04:54.000 : en:00:04:54.000
00:10:58.292 : en:00:10:58.292
00:13:54.125 : en:00:13:54.125
00:18:00.875 : en:00:18:00.875
00:23:18.750 : en:00:23:18.750
00:28:03.542 : en:00:28:03.542
00:32:55.000 : en:00:32:55.000
00:36:14.458 : en:00:36:14.458
00:41:19.833 : en:00:41:19.833
00:44:54.708 : en:00:44:54.708
00:50:25.000 : en:00:50:25.000
00:56:41.792 : en:00:56:41.792
01:02:39.458 : en:01:02:39.458
01:08:48.750 : en:01:08:48.750
01:13:12.667 : en:01:13:12.667
01:17:43.958 : en:01:17:43.958
01:22:49.917 : en:01:22:49.917

Скриншоты

[free-tor.com].t13670.torrent 
Торрент: Зарегистрирован [ 2017-11-14 12:28 ] · B70F84CCDA4E8449BD2D93A97DBAAE6384AD16D1

Скачать .torrent

Скачать .torrent

15 KB

Статус: проверено
.torrent скачан: 2 раз
Размер: 2,79 GB
Правила
Похожие темы
[Профиль] [ЛС]
Показать сообщения:    
Ответить на тему

Текущее время: 19-Ноя 18:02

Часовой пояс: UTC + 4



Вы не можете начинать темы
Вы не можете отвечать на сообщения
Вы не можете редактировать свои сообщения
Вы не можете удалять свои сообщения
Вы не можете голосовать в опросах
Вы не можете прикреплять файлы к сообщениям
Вы можете скачивать файлы
Анализ веб сайтов Яндекс.Метрика Рейтинг@Mail.ru