Гангстердам / Gangsterdam (Ромейн Леви) [2017., Комедия, BDRip 1080p | iTunes]

Ответить на тему
Статистика раздачи
Размер:  6,82 GB   |    Зарегистрирован:  5 дней   |    .torrent скачан:  3 раза
Сидов:  58  [  0 KB/s  ]   Личеров:  25  [  0 KB/s  ]   Подробная статистика пиров
 
   
 
 
Автор Сообщение

Husky ®

Онлайн



Пол: Мужской

Стаж: 2 года 7 месяцев

Наличие запрета:

Сообщений: 105

Откуда: 21 RUS

Отдача: 2 Mb/s

Загрузка: 20 Mb/s

Нажми

Создавать темы 14-Ноя-2017 14:09

[Цитировать]

Гангстердам / Gangsterdam-«Решай или лажай»-
Год выхода: 2017
Страна: Франция, Нидерланды
Жанр: Комедия
Продолжительность: 01:38:01
Перевод: Профессиональный (полное дублирование) iTunes
Субтитры: Французские-Режиссер: Ромейн Леви-В ролях: Кев Адамс, Мэнон Азем, Коме Левин, Юбер Кунде, Мона Валравенс, Рутгер Хауэр, Алекс Хендрикс, Идо Моссери, Патрик Тимси, Маню Пайе-Описание: После серии нелепых попыток приударить за Норой, судьба наконец подкидывает Рубену реальный шанс доказать, что он настоящий мачо. Всё, что для этого нужно — отправиться с девушкой своей мечты в Амстердам, забрать товар и по дороге назад не напортачить. Всё шло гладко, пока на их пути не встала местная мафия.- -Качество: BDRip 1080p
Формат: MKV
Видео кодек: AVC
Аудио кодек: AC3
Видео: 1920x800, 23.976 fps, 8070 Кбит/с
Аудио 1: AC3, 384 kb/s, 6 ch, 48.0 KHz - Русский
Аудио 2: DTS, 1509 kb/s, 6 ch, 48.0 KHz - Французский

MediaInfo

Video
ID                          : 1
Format                      : AVC
Format/Info                 : Advanced Video Codec
Format profile              : [email protected]
Format settings             : CABAC / 5 Ref Frames
Format settings, CABAC      : Yes
Format settings, RefFrames  : 5 frames
Codec ID                    : V_MPEG4/ISO/AVC
Duration                    : 1 h 38 min
Bit rate                    : 8 070 kb/s
Width                       : 1 920 pixels
Height                      : 800 pixels
Display aspect ratio        : 2.40:1
Frame rate mode             : Constant
Frame rate                  : 23.976 (24000/1001) FPS
Color space                 : YUV
Chroma subsampling          : 4:2:0
Bit depth                   : 8 bits
Scan type                   : Progressive
Bits/(Pixel*Frame)          : 0.219
Stream size                 : 5.39 GiB (79%)
Writing library             : x264 core 152 r2851 ba24899
Encoding settings           : cabac=1 / ref=5 / deblock=1:0:0 / analyse=0x3:0x113 / me=umh / subme=8 / psy=1 / psy_rd=1.00:0.00 / mixed_ref=1 / me_range=16 / chroma_me=1 / trellis=1 / 8x8dct=1 / cqm=0 / deadzone=21,11 / fast_pskip=1 / chroma_qp_offset=-2 / threads=18 / lookahead_threads=3 / sliced_threads=0 / nr=0 / decimate=1 / interlaced=0 / bluray_compat=0 / constrained_intra=0 / bframes=3 / b_pyramid=2 / b_adapt=2 / b_bias=0 / direct=3 / weightb=1 / open_gop=0 / weightp=2 / keyint=240 / keyint_min=24 / scenecut=40 / intra_refresh=0 / rc_lookahead=50 / rc=2pass / mbtree=1 / bitrate=8070 / ratetol=1.0 / qcomp=0.60 / qpmin=0 / qpmax=69 / qpstep=4 / cplxblur=20.0 / qblur=0.5 / ip_ratio=1.40 / aq=1:1.00
Language                    : English
Default                     : Yes
Forced                      : No
Audio #1
ID                          : 2
Format                      : AC-3
Format/Info                 : Audio Coding 3
Format settings, Endianness : Big
Codec ID                    : A_AC3
Duration                    : 1 h 38 min
Bit rate mode               : Constant
Bit rate                    : 384 kb/s
Channel(s)                  : 6 channels
Channel positions           : Front: L C R, Side: L R, LFE
Sampling rate               : 48.0 kHz
Frame rate                  : 31.250 FPS (1536 SPF)
Bit depth                   : 16 bits
Compression mode            : Lossy
Stream size                 : 269 MiB (4%)
Language                    : Russian
Service kind                : Complete Main
Default                     : No
Forced                      : No
Audio #2
ID                          : 3
Format                      : DTS
Format/Info                 : Digital Theater Systems
Mode                        : 16
Format settings, Endianness : Big
Codec ID                    : A_DTS
Duration                    : 1 h 38 min
Bit rate mode               : Constant
Bit rate                    : 1 509 kb/s
Channel(s)                  : 6 channels
Channel positions           : Front: L C R, Side: L R, LFE
Sampling rate               : 48.0 kHz
Frame rate                  : 93.750 FPS (512 SPF)
Bit depth                   : 24 bits
Compression mode            : Lossy
Stream size                 : 1.03 GiB (15%)
Title                       : French DTS 1509kbps
Language                    : French
Default                     : Yes
Forced                      : No
Text
ID                          : 4
Format                      : UTF-8
Codec ID                    : S_TEXT/UTF8
Codec ID/Info               : UTF-8 Plain Text
Title                       : Forced
Language                    : French
Default                     : Yes
Forced                      : Yes
Menu
00:00:00.000                : en:00:00:00.000
00:08:31.261                : en:00:08:31.261
00:16:24.901                : en:00:16:24.901
00:24:26.006                : en:00:24:26.006
00:34:57.220                : en:00:34:57.220
00:43:31.400                : en:00:43:31.400
00:52:38.364                : en:00:52:38.364
00:59:45.749                : en:00:59:45.749
01:07:54.737                : en:01:07:54.737
01:16:11.484                : en:01:16:11.484
01:24:30.983                : en:01:24:30.983
01:32:37.886                : en:01:32:37.886

Скриншоты

[free-tor.com].t13673.torrent 
Торрент: Зарегистрирован [ 2017-11-14 14:09 ] · E9150AF392E5EAA88669643EAC0B056A685D084A

Скачать .torrent

Скачать .torrent

35 KB

Статус: проверено
.torrent скачан: 3 раз
Размер: 6,82 GB
Правила
Похожие темы
[Профиль] [ЛС]
Показать сообщения:    
Ответить на тему

Текущее время: 19-Ноя 18:03

Часовой пояс: UTC + 4



Вы не можете начинать темы
Вы не можете отвечать на сообщения
Вы не можете редактировать свои сообщения
Вы не можете удалять свои сообщения
Вы не можете голосовать в опросах
Вы не можете прикреплять файлы к сообщениям
Вы можете скачивать файлы
Анализ веб сайтов Яндекс.Метрика Рейтинг@Mail.ru