мама! / mother! (Даррен Аронофски) [2017, ужасы, триллер, драма, авторское кино, WEB-DL 720p от ExKinoRay | iTunes]

Ответить на тему
Статистика раздачи
Размер:  4,14 GB   |    Зарегистрирован:  7 дней   |    .torrent скачан:  8 раз
Сидов:  196  [  0 KB/s  ]   Личеров:  61  [  0 KB/s  ]   Подробная статистика пиров
 
   
 
 
Автор Сообщение

Skorp10n ®

Оффлайн

 Активный раздающий 1 Активный раздающий 2
 Активный релизер 1000 Активный релизер 1500 Активный релизер 2000 Активный релизер 250 Активный релизер 3000 Активный релизер 500 Активный Форумчанин 1 Активный Форумчанин 2 Активный Форумчанин 3 Активный Форумчанин 4 Друг трекера Карма 1000 Карма 500 Меценат Ни дня без новостей Орденосец 1 степени Орденосец 2 степени Орденосец 3 степени Почетный орденосец Почетный репортер С Новым 2016 Годом! С Новым 2017 Годом! Супер Мега Контер Квейк ТОП-10

Пол: Мужской

Стаж: 2 года 4 месяца

Наличие запрета:

Сообщений: 3965

Откуда: Караганда

Отдача: не определено

Загрузка: не определено

Нажми

Создавать темы 06-Дек-2017 14:04

[Цитировать]

Информация о фильме- Название: мама!
Оригинальное название: mother!
Год выхода: 2017
Жанр: Ужасы, триллер, драма, авторское кино
Режиссер: Даррен Аронофски
В ролях: Дженнифер Лоуренс, Хавьер Бардем, Эд Харрис, Мишель Пфайффер, Брин Глисон, Донал Глисон, Йован Адепо, Патриция Саммерсетт, Эрик Дэвис-О фильме:-Отношения молодой пары оказываются под угрозой, когда, нарушая безмятежное существование супругов, в их дом заявляются незваные гости...- -Страна: США
Студия: Protozoa Pictures
Продолжительность: 02:01:44
Перевод: Дублированный | iTunes-Файл-Качество: WEB-DL 720p
Видео: MPEG-4 AVC, 1280x536, 4104 Kbit/s, 23.976 fps
Звук:
Аудио #01: 48 kHz, AC3, 5.1, 384 Kbps | Дублированный | iTunes | RUS |
Аудио #02: 48 kHz, AC3, 5.1, 384 Kbps | Оригинал | ENG |
Субтитры: Русские, английские-

MI

-General
Unique ID : 246756592680223354030911851535390317883 (0xB9A3975122B519579CEA4632DCCD9D3B)
Complete name : G:VideoSSDMother!.2017.WEB-DL.720p.ExKinoRay.mkv
Format : Matroska
Format version : Version 4 / Version 2
File size : 4.14 GiB
Duration : 2 h 1 min
Overall bit rate : 4 871 kb/s
Movie name : Mother! 2017 from ExKinoRay
Encoded date : UTC 2017-12-06 01:29:19
Writing application : mkvmerge v18.0.0 ('Apricity') 64-bit
Writing library : libebml v1.3.5 + libmatroska v1.4.8
Video
ID : 1
Format : AVC
Format/Info : Advanced Video Codec
Format profile : [email protected]
Format settings : 2 Ref Frames
Format settings, CABAC : No
Format settings, RefFrames : 2 frames
Codec ID : V_MPEG4/ISO/AVC
Duration : 2 h 1 min
Bit rate : 4 104 kb/s
Width : 1 280 pixels
Height : 536 pixels
Display aspect ratio : 2.40:1
Frame rate mode : Constant
Frame rate : 23.976 FPS
Color space : YUV
Chroma subsampling : 4:2:0
Bit depth : 8 bits
Scan type : Progressive
Bits/(Pixel*Frame) : 0.250
Stream size : 3.49 GiB (84%)
Language : English
Default : Yes
Forced : No
Color range : Limited
Color primaries : BT.709
Transfer characteristics : BT.709
Matrix coefficients : BT.709
Audio #1
ID : 2
Format : AC-3
Format/Info : Audio Coding 3
Format settings, Endianness : Big
Codec ID : A_AC3
Duration : 2 h 1 min
Bit rate mode : Constant
Bit rate : 384 kb/s
Channel(s) : 6 channels
Channel positions : Front: L C R, Side: L R, LFE
Sampling rate : 48.0 kHz
Frame rate : 31.250 FPS (1536 SPF)
Bit depth : 16 bits
Compression mode : Lossy
Stream size : 333 MiB (8%)
Title : Dub
Language : Russian
Service kind : Complete Main
Default : Yes
Forced : No
Audio #2
ID : 3
Format : AC-3
Format/Info : Audio Coding 3
Format settings, Endianness : Big
Codec ID : A_AC3
Duration : 2 h 1 min
Bit rate mode : Constant
Bit rate : 384 kb/s
Channel(s) : 6 channels
Channel positions : Front: L C R, Side: L R, LFE
Sampling rate : 48.0 kHz
Frame rate : 31.250 FPS (1536 SPF)
Bit depth : 16 bits
Compression mode : Lossy
Stream size : 333 MiB (8%)
Title : Original
Language : English
Service kind : Complete Main
Default : No
Forced : No
Text #1
ID : 4
Format : UTF-8
Codec ID : S_TEXT/UTF8
Codec ID/Info : UTF-8 Plain Text
Duration : 2 h 0 min
Bit rate : 56 b/s
Count of elements : 1164
Stream size : 49.3 KiB (0%)
Title : Full
Language : Russian
Default : No
Forced : No
Text #2
ID : 5
Format : UTF-8
Codec ID : S_TEXT/UTF8
Codec ID/Info : UTF-8 Plain Text
Duration : 1 h 54 min
Bit rate : 38 b/s
Count of elements : 1282
Stream size : 32.4 KiB (0%)
Title : Full
Language : English
Default : No
Forced : No
Menu
00:00:00.000 : en:1
00:06:21.000 : en:2
00:10:19.000 : en:3
00:15:57.000 : en:4
00:21:35.000 : en:5
00:24:57.000 : en:6
00:31:28.000 : en:7
00:38:26.000 : en:8
00:44:53.000 : en:9
00:49:31.000 : en:10
00:53:39.000 : en:11
01:02:15.000 : en:12
01:08:19.000 : en:13
01:16:46.000 : en:14
01:20:25.000 : en:15
01:28:20.000 : en:16
01:38:02.000 : en:17
01:45:45.000 : en:18
01:49:41.000 : en:19
01:56:13.000 : en:20-
-

Скриншоты

--
-Релиз от: Автор релиза: -
[free-tor.com].t13947.torrent 
Торрент: Зарегистрирован [ 2017-12-06 14:04 ] · 65B88F4993D4407333A83FFC5183C4B66501D7F0

Скачать .torrent

Скачать .torrent

22 KB

Статус: проверено
.torrent скачан: 8 раз
Размер: 4,14 GB
Правила
4udaki(06-Дек-17)
Похожие темы
[Профиль] [ЛС]
Показать сообщения:    
Ответить на тему

Текущее время: 14-Дек 09:58

Часовой пояс: UTC + 4



Вы не можете начинать темы
Вы не можете отвечать на сообщения
Вы не можете редактировать свои сообщения
Вы не можете удалять свои сообщения
Вы не можете голосовать в опросах
Вы не можете прикреплять файлы к сообщениям
Вы можете скачивать файлы
Анализ веб сайтов Яндекс.Метрика Рейтинг@Mail.ru