Оно / It (Андрес Мускетти) [2017, триллер, ужасы, драма, BDRemux 1080p | Лицензия]

Ответить на тему
Статистика раздачи [Обновить пиров]
Размер:  34,04 GB   |    Зарегистрирован:  10 месяцев 30 дней   |    .torrent скачан:  5 раз
Сидов:  5  [  0 KB/s  ]   Личеров:  4  [  0 KB/s  ]   Подробная статистика пиров
 
   
 
 
Автор Сообщение

AndreyS ®

Оффлайн



Пол: Мужской

Стаж: 11 месяцев 18 дней

Наличие запрета:

Сообщений: 40

Отдача: не определено

Загрузка: не определено

Нажми

Создавать темы 11-Янв-2018 15:30

[Цитировать]

-Название: Оно
Оригинальное название: It
Год выпуска: 2017
Жанр: триллер, ужасы, драма
Режиссер: Андрес Мускетти
В ролях: Джейден Либерер, Джереми Рэй Тейлор, София Лиллис, Финн Вулфард, Чоузен Джейкобс, Джек Грейзер, Уайатт Олефф, Билл Скарсгард, Николас Хэмилтон, Джейк Сим, Логан Томпсон, Оуэн Тиг, Джексон Роберт Скотт, Стивен Богерт, Стюарт Хьюз-О фильме:
В маленьком городке Дерри, штат Мэн, уже много веков орудует воплощение липкого ужаса под видом клоуна из бродячего шапито. Его жертвами становятся преимущественно подростки с неокрепшей психикой, которых он предварительно запугивает до аморфного состояния, чтобы затем устроить детишкам кровавую вакханалию в марсианском аду. Местные власти ничего не предпринимают, потому как искренне убеждены, что потерь нет. И лишь небольшая группа детских умов, называющая себя "Клубом Неудачников", успешно противостоит приемам карательной психиатрии. И теперь им придется не только пережить жесточайший кошмар в истории человечества, но и бросить вызов империи зла в ее самых демонических проявлениях.-
Страна: США, Канада
Студия: Warner Bros. Pictures, New Line Cinema
Продолжительность: 02:14:42
Перевод: Профессиональный (дублированный), любительский (многоголосый), авторский (одноголосый)
Субтитры: Русские, английские-Формат: MKV
Качество: BDRemux 1080p
Видео: MPEG-4 AVC / 23899 kbps / 1920x1080 / 23.976 fps
Звук:
#1. Russian: Dolby Digital Audio / 5.1 / 48 kHz / 448 kbps - Дубляж (Blu-Ray EUR)
#2. Russian: Dolby Digital Audio / 5.1 / 48 kHz / 640 kbps - Многоголосый (Paradox & Omskbird)
#3. Russian: DTS-HD Master Audio / 7.1 / 48 kHz / 5200 kbps - Авторский (Михаил Чадов)
#4. English: DTS-HD Master Audio / 5.1 / 48 kHz / 2274 kbps - Оригинал
#5. English: Dolby TrueHD Audio / 7.1 / 48 kHz / 3783 kbps - Оригинал
Внимание! Присутствует ненормативная лексика.

MediaInfo

Format : Matroska
Format version : Version 2
File size : 34.0 GiB
Duration : 2 h 14 min
Overall bit rate mode : Variable
Overall bit rate : 36.2 Mb/s
Movie name : IT (2017) BDRemux 1080p
Encoded date : UTC 2018-01-11 10:11:31
Writing application : mkvmerge v4.9.1 ('Ich will') сборка от Jul 11 2011 23:53:15
Writing library : libebml v1.2.1 + libmatroska v1.1.1
Video
ID : 1
Format : AVC
Format/Info : Advanced Video Codec
Format profile : [email protected]
Format settings, CABAC : Yes
Format settings, RefFrames : 4 frames
Codec ID : V_MPEG4/ISO/AVC
Duration : 2 h 14 min
Bit rate mode : Variable
Maximum bit rate : 30.0 Mb/s
Width : 1 920 pixels
Height : 1 080 pixels
Display aspect ratio : 16:9
Frame rate mode : Constant
Frame rate : 23.976 (24000/1001) FPS
Color space : YUV
Chroma subsampling : 4:2:0
Bit depth : 8 bits
Scan type : Progressive
Title : ОНО (2017)
Language : English
Default : Yes
Forced : No
Audio #1
ID : 2
Format : AC-3
Format/Info : Audio Coding 3
Format settings, Endianness : Big
Codec ID : A_AC3
Duration : 2 h 14 min
Bit rate mode : Constant
Bit rate : 448 kb/s
Channel(s) : 6 channels
Channel positions : Front: L C R, Side: L R, LFE
Sampling rate : 48.0 kHz
Frame rate : 31.250 FPS (1536 SPF)
Bit depth : 16 bits
Compression mode : Lossy
Stream size : 432 MiB (1%)
Title : Дубляж
Language : Russian
Service kind : Complete Main
Default : Yes
Forced : No
Audio #2
ID : 3
Format : AC-3
Format/Info : Audio Coding 3
Format settings, Endianness : Big
Codec ID : A_AC3
Duration : 2 h 14 min
Bit rate mode : Constant
Bit rate : 640 kb/s
Channel(s) : 6 channels
Channel positions : Front: L C R, Side: L R, LFE
Sampling rate : 48.0 kHz
Frame rate : 31.250 FPS (1536 SPF)
Bit depth : 16 bits
Compression mode : Lossy
Stream size : 617 MiB (2%)
Title : Paradox & Omskbird
Language : Russian
Service kind : Complete Main
Default : No
Forced : No
Audio #3
ID : 4
Format : DTS
Format/Info : Digital Theater Systems
Format profile : MA / Core
Mode : 16
Format settings, Endianness : Big
Codec ID : A_DTS
Duration : 2 h 14 min
Bit rate mode : Variable / Constant
Bit rate : Unknown / 1 509 kb/s
Channel(s) : 8 channels / 6 channels
Channel positions : Front: L C R, Side: L R, Back: L R, LFE / Front: L C R, Side: L R, LFE
Sampling rate : 48.0 kHz
Frame rate : 93.750 FPS (512 SPF)
Bit depth : 24 bits
Compression mode : Lossless / Lossy
Title : Чадов
Language : Russian
Default : No
Forced : No
Audio #4
ID : 5
Format : DTS
Format/Info : Digital Theater Systems
Format profile : MA / Core
Mode : 16
Format settings, Endianness : Big
Codec ID : A_DTS
Duration : 2 h 14 min
Bit rate mode : Variable / Constant
Bit rate : Unknown / 1 509 kb/s
Channel(s) : 6 channels
Channel positions : Front: L C R, Side: L R, LFE
Sampling rate : 48.0 kHz
Frame rate : 93.750 FPS (512 SPF)
Bit depth : 16 bits
Compression mode : Lossless / Lossy
Title : Оригинал
Language : English
Default : No
Forced : No
Audio #5
ID : 6
Format : TrueHD
Format profile : TrueHD+Atmos / TrueHD
Codec ID : A_TRUEHD
Bit rate mode : Variable
Maximum bit rate : 7 701 kb/s
Channel(s) : Object Based / 8 channels
Channel positions : Object Based / Front: L C R, Side: L R, Back: L R, LFE
Sampling rate : / 48.0 kHz
Frame rate : 1 200.000 FPS (40 SPF)
Compression mode : Lossless
Title : Оригинал
Language : English
Default : No
Forced : No
Text #1
ID : 7
Format : UTF-8
Codec ID : S_TEXT/UTF8
Codec ID/Info : UTF-8 Plain Text
Title : Forced
Language : Russian
Default : Yes
Forced : No
Text #2
ID : 8
Format : UTF-8
Codec ID : S_TEXT/UTF8
Codec ID/Info : UTF-8 Plain Text
Title : Full
Language : Russian
Default : No
Forced : No
Text #3
ID : 9
Format : UTF-8
Codec ID : S_TEXT/UTF8
Codec ID/Info : UTF-8 Plain Text
Title : Full (Переводман)
Language : Russian
Default : No
Forced : No
Text #4
ID : 10
Format : UTF-8
Codec ID : S_TEXT/UTF8
Codec ID/Info : UTF-8 Plain Text
Title : Full
Language : English
Default : No
Forced : No
Text #5
ID : 11
Format : UTF-8
Codec ID : S_TEXT/UTF8
Codec ID/Info : UTF-8 Plain Text
Title : SDH
Language : English
Default : No
Forced : No
Menu
00:00:00.000 : :Chapter 01
00:09:23.646 : :Chapter 02
00:18:31.860 : :Chapter 03
00:28:26.162 : :Chapter 04
00:38:36.981 : :Chapter 05
00:48:19.438 : :Chapter 06
00:59:30.775 : :Chapter 07
01:08:52.795 : :Chapter 08
01:16:58.822 : :Chapter 09
01:26:52.957 : :Chapter 10
01:38:15.306 : :Chapter 11
01:48:40.972 : :Chapter 12
02:04:07.898 : :Chapter 13
02:09:05.654 : :Chapter 14
02:14:42.157 : :Chapter 15

Скриншоты

[free-tor.com].t14393.torrent 
Торрент: Зарегистрирован [ 2018-01-11 15:30 ] · 0A9F925418CA3BCCA51FD4E4CBE6F40EF5B933A7

Скачать .torrent

Скачать .torrent

171 KB

Статус: проверено
.torrent скачан: 5 раз
Размер: 34,04 GB
Правила
Skorp10n(11-Янв-18), 4udaki(11-Янв-18)
Похожие темы
[Профиль] [ЛС]
Показать сообщения:    
Ответить на тему

Текущее время: 11-Дек 08:39

Часовой пояс: UTC + 4



Вы не можете начинать темы
Вы не можете отвечать на сообщения
Вы не можете редактировать свои сообщения
Вы не можете удалять свои сообщения
Вы не можете голосовать в опросах
Вы не можете прикреплять файлы к сообщениям
Вы можете скачивать файлы
Анализ веб сайтов Яндекс.Метрика Рейтинг@Mail.ru