Я – легенда / I Am Legend (Фрэнсис Лоуренс) [2007, фантастика, триллер, постапокалипсис, антиутопия, экранизация, вампиры, UHD BDRemux 2160p от ExKinoRay | 4K | HDR | Театральная версия | Лицензия]

Ответить на тему
Статистика раздачи
Размер:  46,48 GB   |    Зарегистрирован:  7 дней   |    .torrent скачан:  2 раза
Сидов:  48  [  0 KB/s  ]   Личеров:  27  [  0 KB/s  ]   Подробная статистика пиров
 
   
 
 
Автор Сообщение

Skorp10n ®

Оффлайн

 Активный раздающий 1 Активный раздающий 2
 Активный релизер 1000 Активный релизер 1500 Активный релизер 2000 Активный релизер 250 Активный релизер 3000 Активный релизер 500 Активный Форумчанин 1 Активный Форумчанин 2 Активный Форумчанин 3 Активный Форумчанин 4 Друг трекера Карма 1000 Карма 500 Меценат Ни дня без новостей Орденосец 1 степени Орденосец 2 степени Орденосец 3 степени Почетный орденосец Почетный репортер С Новым 2016 Годом! С Новым 2017 Годом! С Новым 2018 Годом! Супер Мега Контер Квейк ТОП-10

Пол: Мужской

Стаж: 2 года 5 месяцев

Наличие запрета:

Сообщений: 4231

Откуда: Караганда

Отдача: не определено

Загрузка: не определено

Нажми

Создавать темы 12-Янв-2018 13:51

[Цитировать]

Информация о фильме- Название: Я-легенда
Оригинальное название: I Am Legend
Год выхода: 2007
Жанр: Фантастика, триллер, постапокалипсис, антиутопия, экранизация, вампиры
Режиссер: Фрэнсис Лоуренс
В ролях: Уилл Смит, Алиси Брага, Чарли Тахэн, Салли Ричардсон-Уитфилд, Уиллоу Смит, Даррел Фостер, Эйприл Грэйс, Дэш Майок, Джоанна Нумата, Эбби, Кона, Сэмюэл Глен, Джеймс Майкл МакКейли, Марин Айрлэнд, Педро Можица, Энтони С. Мацца, Стив Кирбус, Калиста Хилл, Габриэлла Хилл, Мадлен Хилл, Эди Шарма-О фильме:-Он выходит только днем. Он и его единственный и верный друг - собака, чтобы вновь и вновь передавать радиосигнал в надежде увидеть или услышать хоть кого-то, выжившего после эпидемии, кроме него... Единственное условие - успеть вернуться до заката! Он пытается найти лекарство от страшного вируса, забравшего у него близких и большую часть человечества, но для этого нужны подопытные - те, кто когда-то называли себя людьми. С последним пойманным экземпляром появилась надежда, но вместе с ней, пусть хрупкий, но налаженный мир вокруг него превратился в кошмар. Теперь охота началась на него...- -Страна: США
Студия: Warner Bros, Village Roadshow Pictures, Weed Road Pictures
Продолжительность: 01:40:26
Перевод: Дублированный | Лицензия-Файл-Качество: BDRemux 2160p
Видео: MPEG-H HEVC HDR Video, 3840x2160, 62.2 Mbit/s, 23.976 fps
Звук:
Аудио #01: 48 kHz, AC3, 5.1, 448 Kbps | Дублированный | RUS |
Аудио #02: 48 kHz, DTS-HD MA, 5.1, 3623 Kbps | Оригинал | ENG |
Субтитры: Русские (forced, full), английские-

MI

-General
Unique ID : 48824202629219100710414797497386854599 (0x24BB330AECAA999DDFC73AA2C64EE8C7)
Complete name : G:VideoSSDI.Am.Legend.2007.BDREMUX.2160p.4K.UltraHD.HEVC.HDR.ExKinoRay.mkv
Format : Matroska
Format version : Version 4 / Version 2
File size : 46.5 GiB
Duration : 1 h 40 min
Overall bit rate : 66.2 Mb/s
Movie name : I Am Legend 2007 from ExKinoRay
Encoded date : UTC 2018-01-10 09:41:48
Writing application : mkvmerge v19.0.0 ('Brave Captain') 64-bit
Writing library : libebml v1.3.5 + libmatroska v1.4.8
Video
ID : 1
Format : HEVC
Format/Info : High Efficiency Video Coding
Format profile : Main [email protected]@High
Codec ID : V_MPEGH/ISO/HEVC
Duration : 1 h 40 min
Bit rate : 62.2 Mb/s
Width : 3 840 pixels
Height : 2 160 pixels
Display aspect ratio : 16:9
Frame rate mode : Constant
Frame rate : 23.976 (24000/1001) FPS
Color space : YUV
Chroma subsampling : 4:2:0 (Type 2)
Bit depth : 10 bits
Bits/(Pixel*Frame) : 0.313
Stream size : 43.6 GiB (94%)
Language : English
Default : Yes
Forced : No
Color range : Limited
Color primaries : BT.2020
Transfer characteristics : PQ
Matrix coefficients : BT.2020 non-constant
Mastering display color pri : R: x=0.680000 y=0.320000, G: x=0.265000 y=0.690000, B: x=0.150000 y=0.060000, White point: x=0.312700 y=0.329000
Mastering display luminance : min: 0.0050 cd/m2, max: 4000.0000 cd/m2
Maximum Content Light Level : 1261 cd/m2
Maximum Frame-Average Light : 512 cd/m2
Audio #1
ID : 2
Format : AC-3
Format/Info : Audio Coding 3
Codec ID : A_AC3
Duration : 1 h 40 min
Bit rate mode : Constant
Bit rate : 448 kb/s
Channel(s) : 6 channels
Channel positions : Front: L C R, Side: L R, LFE
Sampling rate : 48.0 kHz
Frame rate : 31.250 FPS (1536 SPF)
Bit depth : 16 bits
Compression mode : Lossy
Stream size : 322 MiB (1%)
Title : Dub [License]
Language : Russian
Service kind : Complete Main
Default : Yes
Forced : No
Audio #2
ID : 3
Format : DTS
Format/Info : Digital Theater Systems
Format profile : MA / Core
Codec ID : A_DTS
Duration : 1 h 40 min
Bit rate mode : Variable / Constant
Bit rate : 3 623 kb/s / 1 509 kb/s
Channel(s) : 6 channels
Channel positions : Front: L C R, Side: L R, LFE
Sampling rate : 48.0 kHz
Frame rate : 93.750 FPS (512 SPF)
Bit depth : 24 bits
Compression mode : Lossless / Lossy
Stream size : 2.54 GiB (5%)
Title : Original
Language : English
Default : No
Forced : No
Text #1
ID : 4
Format : UTF-8
Codec ID : S_TEXT/UTF8
Codec ID/Info : UTF-8 Plain Text
Duration : 1 h 39 min
Bit rate : 0 b/s
Count of elements : 12
Stream size : 549 Bytes (0%)
Title : Forced
Language : Russian
Default : Yes
Forced : No
Text #2
ID : 5
Format : UTF-8
Codec ID : S_TEXT/UTF8
Codec ID/Info : UTF-8 Plain Text
Duration : 1 h 33 min
Bit rate : 56 b/s
Count of elements : 692
Stream size : 38.4 KiB (0%)
Title : Full
Language : Russian
Default : No
Forced : No
Text #3
ID : 6
Format : UTF-8
Codec ID : S_TEXT/UTF8
Codec ID/Info : UTF-8 Plain Text
Duration : 1 h 31 min
Bit rate : 33 b/s
Count of elements : 658
Stream size : 22.3 KiB (0%)
Title : Full
Language : English
Default : No
Forced : No
Menu
00:00:00.000 : en:Chapter 1
00:02:14.134 : en:Chapter 2
00:07:56.476 : en:Chapter 3
00:12:07.393 : en:Chapter 4
00:15:15.706 : en:Chapter 5
00:18:20.099 : en:Chapter 6
00:23:22.526 : en:Chapter 7
00:26:42.183 : en:Chapter 8
00:31:49.282 : en:Chapter 9
00:34:15.595 : en:Chapter 10
00:37:45.805 : en:Chapter 11
00:39:16.145 : en:Chapter 12
00:44:06.644 : en:Chapter 13
00:48:50.928 : en:Chapter 14
00:53:12.731 : en:Chapter 15
00:56:54.786 : en:Chapter 16
00:59:41.452 : en:Chapter 17
01:02:41.090 : en:Chapter 18
01:04:30.658 : en:Chapter 19
01:09:18.487 : en:Chapter 20
01:11:21.902 : en:Chapter 21
01:17:38.779 : en:Chapter 22
01:20:14.935 : en:Chapter 23
01:24:10.920 : en:Chapter 24
01:27:59.691 : en:Chapter 25
01:29:48.049 : en:Chapter 26
01:31:48.002 : en:Chapter 27-
-

Скриншоты

--
-Релиз от: Автор релиза: -
[free-tor.com].t14398.torrent 
Торрент: Зарегистрирован [ 2018-01-12 13:51 ] · 9A5795619D85558577DDCB3FF482BC807DACC7CD

Скачать .torrent

Скачать .torrent

233 KB

Статус: проверено
.torrent скачан: 2 раз
Размер: 46,48 GB
Правила
4udaki(12-Янв-18)
Похожие темы
[Профиль] [ЛС]
Показать сообщения:    
Ответить на тему

Текущее время: 19-Янв 15:13

Часовой пояс: UTC + 4



Вы не можете начинать темы
Вы не можете отвечать на сообщения
Вы не можете редактировать свои сообщения
Вы не можете удалять свои сообщения
Вы не можете голосовать в опросах
Вы не можете прикреплять файлы к сообщениям
Вы можете скачивать файлы
Анализ веб сайтов Яндекс.Метрика Рейтинг@Mail.ru