Женись на мне, чувак / Épouse-moi mon pote (Тарек Будали) [2017, комедия, приключения, WEB-DL 720p от ExKinoRay | iTunes]

Ответить на тему
Статистика раздачи [Обновить пиров]
Размер:  2,93 GB   |    Зарегистрирован:  3 месяца 11 дней   |    .torrent скачан:  9 раз
Сидов:  79  [  0 KB/s  ]   Личеров:  6  [  0 KB/s  ]   Подробная статистика пиров
 
   
 
 
Автор Сообщение

Skorp10n ®

Оффлайн

 Активный раздающий 1 Активный раздающий 2
 Активный релизер 1000 Активный релизер 1500 Активный релизер 2000 Активный релизер 250 Активный релизер 3000 Активный релизер 500 Активный релизер Фильмов (300) Активный Форумчанин 1 Активный Форумчанин 2 Активный Форумчанин 3 Активный Форумчанин 4 Друг трекера Карма 1000 Карма 1500 Карма 500 Меценат Ни дня без новостей Орденосец 1 степени Орденосец 2 степени Орденосец 3 степени Почетный орденосец Почетный репортер С Новым 2016 Годом! С Новым 2017 Годом! С Новым 2018 Годом! Супер Мега Контер Квейк ТОП-10

Пол: Мужской

Стаж: 2 года 9 месяцев

Наличие запрета:

Сообщений: 5207

Откуда: Free-Tor.com

Отдача: не определено

Загрузка: не определено

Нажми

Создавать темы 10-Фев-2018 17:20

[Цитировать]

Информация о фильме- Название: Женись на мне, чувак
Оригинальное название: Épouse-moi mon pote
Год выхода: 2017
Жанр: Комедия, приключения
Режиссер: Тарек Будали
В ролях: Тарек Будали, Филипп Лашо, Шарлотта Габрис, Анди, Давид Марсе, Жюльен Аррути, Байа Белаль, Филипп Дюкен, Зинедин Суалем, Дуду Маста- -О фильме:-Единственный шанс для провалившего экзамен студента остаться в Париже — это фиктивный брак. Однако, найти невесту так быстро практически невозможно. И тогда на помощь приходит лучший друг.-Страна: Франция
Студия: Axel Films, Canal+ [fr]
Продолжительность: 01:27:59
Перевод: Дублированный | iTunes
-Качество: WEB-DL 720p
Видео: MPEG-4 AVC, 960х[email protected], 3998 Kbit/s, 25.000 fps
Звук:
Аудио #01: 48 kHz, AC3, 5.1, 384 Kbps | Дублированный | iTunes | RUS |
Аудио #02: 48 kHz, AC3, 5.1, 384 Kbps | Дублированный | iTunes | UKR |
-

MI

-General
Unique ID : 223554881783009511749718712968346757823 (0xA82F1AA68F097EE044B48F99A7BA6ABF)
Complete name : C:Video111Épouse-moi.mon.pote.2017.WEB-DL.720p.ExKinoRay.mkv
Format : Matroska
Format version : Version 4 / Version 2
File size : 2.93 GiB
Duration : 1 h 27 min
Overall bit rate : 4 768 kb/s
Movie name : Épouse-moi mon pote 2017 from ExKinoRay
Encoded date : UTC 2018-02-09 15:05:53
Writing application : mkvmerge v20.0.0 ('I Am The Sun') 64-bit
Writing library : libebml v1.3.5 + libmatroska v1.4.8
Video
ID : 1
Format : AVC
Format/Info : Advanced Video Codec
Format profile : [email protected]
Format settings : 2 Ref Frames
Format settings, CABAC : No
Format settings, ReFrames : 2 frames
Codec ID : V_MPEG4/ISO/AVC
Duration : 1 h 27 min
Bit rate : 3 998 kb/s
Width : 960 pixels
Height : 692 pixels
Display aspect ratio : 1.85:1
Frame rate mode : Constant
Frame rate : 25.000 FPS
Color space : YUV
Chroma subsampling : 4:2:0
Bit depth : 8 bits
Scan type : Progressive
Bits/(Pixel*Frame) : 0.241
Stream size : 2.46 GiB (84%)
Language : English
Default : Yes
Forced : No
Color range : Limited
Color primaries : BT.709
Transfer characteristics : BT.709
Matrix coefficients : BT.709
Audio #1
ID : 2
Format : AC-3
Format/Info : Audio Coding 3
Codec ID : A_AC3
Duration : 1 h 27 min
Bit rate mode : Constant
Bit rate : 384 kb/s
Channel(s) : 6 channels
Channel positions : Front: L C R, Side: L R, LFE
Sampling rate : 48.0 kHz
Frame rate : 31.250 FPS (1536 SPF)
Bit depth : 16 bits
Compression mode : Lossy
Stream size : 242 MiB (8%)
Title : iTunes
Language : Russian
Service kind : Complete Main
Default : Yes
Forced : No
Audio #2
ID : 3
Format : AC-3
Format/Info : Audio Coding 3
Codec ID : A_AC3
Duration : 1 h 27 min
Bit rate mode : Constant
Bit rate : 384 kb/s
Channel(s) : 6 channels
Channel positions : Front: L C R, Side: L R, LFE
Sampling rate : 48.0 kHz
Frame rate : 31.250 FPS (1536 SPF)
Bit depth : 16 bits
Compression mode : Lossy
Stream size : 242 MiB (8%)
Title : iTunes
Language : Ukrainian
Service kind : Complete Main
Default : No
Forced : No
Menu
00:00:00.000 : en:Глава 1
00:07:03.000 : en:Глава 2
00:14:06.200 : en:Глава 3
00:22:33.160 : en:Глава 4
00:30:19.760 : en:Глава 5
00:37:39.919 : en:Глава 6
00:44:53.558 : en:Глава 7
00:51:55.677 : en:Глава 8
00:59:13.436 : en:Глава 9
01:06:25.956 : en:Глава 10
01:15:28.955 : en:Глава 11-
-

Скриншоты

--
-Релиз от: Автор релиза: -
[free-tor.com].t14649.torrent 
Торрент: Зарегистрирован [ 2018-02-10 17:20 ] · D3D94143ED8F5ADA5F980D5E7E5B083DE5E1E44E

Скачать .torrent

Скачать .torrent

16 KB

Статус: проверено
.torrent скачан: 9 раз
Размер: 2,93 GB
Правила
4udaki(10-Фев-18)
Похожие темы
[Профиль] [ЛС]
Показать сообщения:    
Ответить на тему

Текущее время: 21-Май 20:51

Часовой пояс: UTC + 4



Вы не можете начинать темы
Вы не можете отвечать на сообщения
Вы не можете редактировать свои сообщения
Вы не можете удалять свои сообщения
Вы не можете голосовать в опросах
Вы не можете прикреплять файлы к сообщениям
Вы можете скачивать файлы
Анализ веб сайтов Яндекс.Метрика Рейтинг@Mail.ru