Дело храбрых / Only the Brave (Джозеф Косински) [2017, драма, биография, BDRip-AVC от OlLanDGroup | iTunes]

Ответить на тему
Статистика раздачи [Обновить пиров]
Размер:  2,76 GB   |    Зарегистрирован:  3 дня   |    .torrent скачан:  4 раза
Сидов:  167  [  0 KB/s  ]   Личеров:  9  [  0 KB/s  ]   Подробная статистика пиров
 
   
 
 
Автор Сообщение

Skorp10n ®

Онлайн

 Активный раздающий 1 Активный раздающий 2
 Активный релизер 1000 Активный релизер 1500 Активный релизер 2000 Активный релизер 250 Активный релизер 3000 Активный релизер 500 Активный Форумчанин 1 Активный Форумчанин 2 Активный Форумчанин 3 Активный Форумчанин 4 Друг трекера Карма 1000 Карма 1500 Карма 500 Меценат Ни дня без новостей Орденосец 1 степени Орденосец 2 степени Орденосец 3 степени Почетный орденосец Почетный репортер С Новым 2016 Годом! С Новым 2017 Годом! С Новым 2018 Годом! Супер Мега Контер Квейк ТОП-10

Пол: Мужской

Стаж: 2 года 6 месяцев

Наличие запрета:

Сообщений: 4465

Откуда: Караганда

Отдача: не определено

Загрузка: не определено

Нажми

Создавать темы 10-Фев-2018 17:25

[Цитировать]

Дело храбрых / Only the Brave
«It's Not What Stands In Front Of You, It's Who Stands Beside You»
- Год выпуска: 2017
Страна: США
Производство: Black Label Media, Conde Nast Entertainment, Di Bonaventura Pictures, SDI Media
Жанр: Драма, биография-Режиссёр: Джозеф Косински
В ролях: Джош Бролин, Майлз Теллер, Джефф Бриджес, Джеймс Бэдж Дэйл, Тейлор Китч, Дженнифер Коннелли, Скотт Хэйз, Алекс Расселл, Бен Харди, Натали Холл-Перевод: Дублированный | iTunes
Субтитры: Русские, Английские
Реклама: Отсутствует-Описание:-История о команде пожарных под названием Granite Mountain Hotshots, столкнувшихся в Аризоне с одним из самых смертоносных пожаров в истории.- -Качество: BDRip-AVC
Продолжительность: 02:14:03-Формат: MKV
Видео кодек: MPEG-4 AVC
Аудио кодек: AC3
Видео: 1024x428 (2.40:1), 23,976 fps, x264 ~2112 kbps avg, 0.201 bit/pixel
Аудио #1: 48 kHz, AC3 Dolby Digital, 3/2 (L,C,R,l,r) + LFE ch, ~384.00 kbps avg | RUS (iTunes)
Аудио #2: 48 kHz, AC3 Dolby Digital, 3/2 (L,C,R,l,r) + LFE ch, ~448.00 kbps avg | ENG-Дата премьеры (мир): 18 октября 2017
Дата премьеры (РФ): 9 ноября 2017, «Централ Партнершип»
-

MediaInfo

-Общее
Уникальный идентификатор : 206388841192300517032814095059545016409 (0x9B450B817294B13C9C70EAEF2734C859)
Полное имя : E:OlLanDGroupOnly.the.Brave.2017.BDRip(AVC).OlLanDGroup.mkv
Формат : Matroska
Версия формата : Version 2
Размер файла : 2,76 Гбайт
Продолжительность : 2 ч. 14 м.
Общий поток : 2950 Кбит/сек
Название фильма : Only.the.Brave.2017 #TorpedoUK#
Дата кодирования : UTC 2018-02-16 01:47:57
Программа кодирования : mkvmerge v7.8.0 ('River Man') 32bit built on Apr 3 2015 12:11:22
Библиотека кодирования : libebml v1.3.1 + libmatroska v1.4.2
Обложка : Yes
Attachments : small_cover_land.jpg / cover.jpg / cover_land.jpg / small_cover.jpg
Видео
Идентификатор : 1
Формат : AVC
Формат/Информация : Advanced Video Codec
Профиль формата : [email protected]
Параметр CABAC формата : Да
Параметр ReFrames формата : 10 кадров
Идентификатор кодека : V_MPEG4/ISO/AVC
Продолжительность : 2 ч. 14 м.
Битрейт : 2112 Кбит/сек
Ширина : 1024 пикселя
Высота : 428 пикселей
Соотношение сторон : 2,40:1
Режим частоты кадров : Постоянный
Частота кадров : 23,976 (24000/1001) кадра/сек
Цветовое пространство : YUV
Субдискретизация насыщенности : 4:2:0
Битовая глубина : 8 бит
Тип развёртки : Прогрессивная
Бит/(Пиксели*Кадры) : 0.201
Размер потока : 1,93 Гбайт (70%)
Библиотека кодирования : x264 core 146 r2538 121396c
Настройки программы : cabac=1 / ref=10 / deblock=1:-3:-3 / analyse=0x3:0x133 / me=umh / subme=11 / psy=1 / psy_rd=1.00:0.03 / mixed_ref=1 / me_range=48 / chroma_me=1 / trellis=2 / 8x8dct=1 / cqm=0 / deadzone=21,11 / fast_pskip=1 / chroma_qp_offset=-3 / threads=6 / lookahead_threads=1 / sliced_threads=0 / nr=0 / decimate=1 / interlaced=0 / bluray_compat=0 / constrained_intra=0 / bframes=10 / b_pyramid=2 / b_adapt=2 / b_bias=0 / direct=3 / weightb=1 / open_gop=0 / weightp=2 / keyint=240 / keyint_min=23 / scenecut=40 / intra_refresh=0 / rc_lookahead=40 / rc=2pass / mbtree=0 / bitrate=2112 / ratetol=1.0 / qcomp=0.60 / qpmin=0 / qpmax=69 / qpstep=4 / cplxblur=20.0 / qblur=0.5 / vbv_maxrate=50000 / vbv_bufsize=62500 / nal_hrd=none / filler=0 / ip_ratio=1.40 / pb_ratio=1.30 / aq=1:1.00
Язык : English
Default : Да
Forced : Нет
Аудио #1
Идентификатор : 2
Формат : AC-3
Формат/Информация : Audio Coding 3
Расширение режима : CM (complete main)
Параметр Endianness формата : Big
Идентификатор кодека : A_AC3
Продолжительность : 2 ч. 14 м.
Вид битрейта : Постоянный
Битрейт : 384 Кбит/сек
Каналы : 6 каналов
Расположение каналов : Front: L C R, Side: L R, LFE
Частота : 48,0 КГц
Частота кадров : 31,250 кадров/сек (1536 spf)
Битовая глубина : 16 бит
Метод сжатия : С потерями
Размер потока : 368 Мбайт (13%)
Заголовок : iTunes
Язык : Russian
Default : Да
Forced : Нет
Аудио #2
Идентификатор : 3
Формат : AC-3
Формат/Информация : Audio Coding 3
Расширение режима : CM (complete main)
Параметр Endianness формата : Big
Идентификатор кодека : A_AC3
Продолжительность : 2 ч. 14 м.
Вид битрейта : Постоянный
Битрейт : 448 Кбит/сек
Каналы : 6 каналов
Расположение каналов : Front: L C R, Side: L R, LFE
Частота : 48,0 КГц
Частота кадров : 31,250 кадров/сек (1536 spf)
Битовая глубина : 16 бит
Метод сжатия : С потерями
Размер потока : 430 Мбайт (15%)
Заголовок : Original
Язык : English
Default : Нет
Forced : Нет
Текст #1
Идентификатор : 4
Формат : UTF-8
Идентификатор кодека : S_TEXT/UTF8
Идентификатор кодека/Информация : UTF-8 Plain Text
Заголовок : Full
Язык : Russian
Default : Нет
Forced : Нет
Текст #2
Идентификатор : 5
Формат : UTF-8
Идентификатор кодека : S_TEXT/UTF8
Идентификатор кодека/Информация : UTF-8 Plain Text
Заголовок : Full
Язык : English
Default : Нет
Forced : Нет
Текст #3
Идентификатор : 6
Формат : UTF-8
Идентификатор кодека : S_TEXT/UTF8
Идентификатор кодека/Информация : UTF-8 Plain Text
Заголовок : SDH
Язык : English
Default : Нет
Forced : Нет
Меню
00:00:00.000 : en:Chapter 01
00:06:39.107 : en:Chapter 02
00:16:14.890 : en:Chapter 03
00:26:30.297 : en:Chapter 04
00:34:26.773 : en:Chapter 05
00:43:54.173 : en:Chapter 06
00:51:29.336 : en:Chapter 07
00:59:18.221 : en:Chapter 08
01:08:27.311 : en:Chapter 09
01:16:19.157 : en:Chapter 10
01:24:16.468 : en:Chapter 11
01:32:51.399 : en:Chapter 12
01:39:07.566 : en:Chapter 13
01:45:11.972 : en:Chapter 14
01:52:54.934 : en:Chapter 15
02:02:04.734 : en:Chapter 16-
-

Скриншоты

--
-Релиз от: Rip by: -
[free-tor.com].t14651.torrent 
Торрент: Зарегистрирован [ 2018-02-16 13:50 ] · DD7A33ECEC30B8995DC8C5F87F04F445EBC39C5D

Скачать .torrent

Скачать .torrent

15 KB

Статус: проверено
.torrent скачан: 4 раз
Размер: 2,76 GB
Правила
4udaki(10-Фев-18)
Похожие темы


Последний раз редактировалось: Skorp10n (2018-02-16 13:50), всего редактировалось 1 раз
[Профиль] [ЛС]
Показать сообщения:    
Ответить на тему

Текущее время: 19-Фев 16:09

Часовой пояс: UTC + 4



Вы не можете начинать темы
Вы не можете отвечать на сообщения
Вы не можете редактировать свои сообщения
Вы не можете удалять свои сообщения
Вы не можете голосовать в опросах
Вы не можете прикреплять файлы к сообщениям
Вы можете скачивать файлы
Анализ веб сайтов Яндекс.Метрика Рейтинг@Mail.ru