Безбашенные / Renegades (Стивен Куэйл) [2017, боевик, триллер, BDRip 720p от ExKinoRay | iTunes]

Ответить на тему
Статистика раздачи [Обновить пиров]
Размер:  5,47 GB   |    Зарегистрирован:  8 дней   |    .torrent скачан:  1 раз
Сидов:  580  [  0 KB/s  ]   Личеров:  49  [  0 KB/s  ]   Подробная статистика пиров
 
   
 
 
Автор Сообщение

Skorp10n ®

Онлайн

 Активный раздающий 1 Активный раздающий 2
 Активный релизер 1000 Активный релизер 1500 Активный релизер 2000 Активный релизер 250 Активный релизер 3000 Активный релизер 500 Активный Форумчанин 1 Активный Форумчанин 2 Активный Форумчанин 3 Активный Форумчанин 4 Друг трекера Карма 1000 Карма 1500 Карма 500 Меценат Ни дня без новостей Орденосец 1 степени Орденосец 2 степени Орденосец 3 степени Почетный орденосец Почетный репортер С Новым 2016 Годом! С Новым 2017 Годом! С Новым 2018 Годом! Супер Мега Контер Квейк ТОП-10

Пол: Мужской

Стаж: 2 года 6 месяцев

Наличие запрета:

Сообщений: 4465

Откуда: Караганда

Отдача: не определено

Загрузка: не определено

Нажми

Создавать темы 10-Фев-2018 17:35

[Цитировать]

Информация о фильме- Название: Безбашенные
Оригинальное название: Renegades
Год выхода: 2017
Жанр: Боевик, триллер
Режиссер: Стивен Куэйл
В ролях: Сильвия Хукс, Юэн Бремнер, Дж.К. Симмонс, Салливан Степлтон, Димитрий Леонидас, Чарли Бьюли, Диармед Мёрта, Клеменс Шик, Джошуа Генри, Славко Собин- -О фильме:-На дне озера охваченной войной Боснии команда спецназа ВМС США «Морские котики» находит клад — золотые слитки стоимостью более 0 млн. Миссия команды, нарушившей присягу и рискующей жизнью — поднять золото со дна озера. Для других она была бы невыполнимой, но только не для этих безбашенных парней: у них есть 10 часов, чтобы завершить задуманное.-Страна: Франция, Германия
Студия: Belga Productions, CB Films, Canal+, DCS, EuropaCorp, Studio Babelsberg
Продолжительность: 01:45:56
Перевод: Дублированный | iTunes
-Качество: BDRip 720p
Видео: MPEG-4 AVC, 1280x536, 5500 Кbit/s, 24.000 fps
Звук:
Аудио #01: 48 kHz, AC3, 5.1, 384 Kbps | Дублированный | iTunes | RUS |
Аудио #02: 48 kHz, DTS, 5.1, 1510 Kbps | Оригинал | ENG |
Субтитры: Английские
-

MI

-General
Unique ID : 260885735286549624139250600700487741236 (0xC444C3D4C22325226C762CE223552F34)
Complete name : C:Video111Renegades.Commando.D'Assalto.2017.BDRip.720p.ExKinoRay.mkv
Format : Matroska
Format version : Version 4 / Version 2
File size : 5.47 GiB
Duration : 1 h 45 min
Overall bit rate : 7 386 kb/s
Movie name : Renegades - Commando D'Assalto 2017 from ExKinoRay
Encoded date : UTC 2018-02-08 23:55:50
Writing application : mkvmerge v20.0.0 ('I Am The Sun') 64-bit
Writing library : libebml v1.3.5 + libmatroska v1.4.8
Video
ID : 1
Format : AVC
Format/Info : Advanced Video Codec
Format profile : [email protected]
Format settings : CABAC / 12 Ref Frames
Format settings, CABAC : Yes
Format settings, ReFrames : 12 frames
Codec ID : V_MPEG4/ISO/AVC
Duration : 1 h 45 min
Bit rate : 5 500 kb/s
Width : 1 280 pixels
Height : 536 pixels
Display aspect ratio : 2.40:1
Frame rate mode : Constant
Frame rate : 24.000 FPS
Color space : YUV
Chroma subsampling : 4:2:0
Bit depth : 8 bits
Scan type : Progressive
Bits/(Pixel*Frame) : 0.334
Stream size : 4.06 GiB (74%)
Writing library : x264 core 148 r2705 3f5ed56
Encoding settings : cabac=1 / ref=12 / deblock=1:-2:-2 / analyse=0x3:0x133 / me=umh / subme=11 / psy=1 / psy_rd=1.05:0.05 / mixed_ref=1 / me_range=32 / chroma_me=1 / trellis=2 / 8x8dct=1 / cqm=0 / deadzone=21,11 / fast_pskip=0 / chroma_qp_offset=-3 / threads=12 / lookahead_threads=2 / sliced_threads=0 / nr=0 / decimate=0 / interlaced=0 / bluray_compat=0 / constrained_intra=0 / bframes=8 / b_pyramid=2 / b_adapt=2 / b_bias=0 / direct=3 / weightb=1 / open_gop=0 / weightp=2 / keyint=240 / keyint_min=24 / scenecut=40 / intra_refresh=0 / rc_lookahead=50 / rc=2pass / mbtree=0 / bitrate=5500 / ratetol=1.0 / qcomp=0.60 / qpmin=0 / qpmax=69 / qpstep=4 / cplxblur=20.0 / qblur=0.5 / vbv_maxrate=50000 / vbv_bufsize=62500 / nal_hrd=none / filler=0 / ip_ratio=1.40 / pb_ratio=1.30 / aq=3:0.80
Language : English
Default : Yes
Forced : No
Audio #1
ID : 2
Format : AC-3
Format/Info : Audio Coding 3
Codec ID : A_AC3
Duration : 1 h 45 min
Bit rate mode : Constant
Bit rate : 384 kb/s
Channel(s) : 6 channels
Channel positions : Front: L C R, Side: L R, LFE
Sampling rate : 48.0 kHz
Frame rate : 31.250 FPS (1536 SPF)
Bit depth : 16 bits
Compression mode : Lossy
Stream size : 290 MiB (5%)
Title : iTunes
Language : Russian
Service kind : Complete Main
Default : Yes
Forced : No
Audio #2
ID : 3
Format : DTS
Format/Info : Digital Theater Systems
Codec ID : A_DTS
Duration : 1 h 45 min
Bit rate mode : Constant
Bit rate : 1 509 kb/s
Channel(s) : 6 channels
Channel positions : Front: L C R, Side: L R, LFE
Sampling rate : 48.0 kHz
Frame rate : 93.750 FPS (512 SPF)
Bit depth : 24 bits
Compression mode : Lossy
Stream size : 1.12 GiB (20%)
Title : Original
Language : English
Default : No
Forced : No
Text
ID : 4
Format : UTF-8
Codec ID : S_TEXT/UTF8
Codec ID/Info : UTF-8 Plain Text
Duration : 1 h 34 min
Bit rate : 46 b/s
Count of elements : 878
Stream size : 32.1 KiB (0%)
Title : Full
Language : English
Default : No
Forced : No
Menu
00:00:00.000 : en:Chapter 1
00:00:49.500 : en:Chapter 2
00:08:55.291 : en:Chapter 3
00:18:57.291 : en:Chapter 4
00:25:43.458 : en:Chapter 5
00:34:06.291 : en:Chapter 6
00:45:40.208 : en:Chapter 7
00:51:21.666 : en:Chapter 8
00:59:01.416 : en:Chapter 9
01:08:51.208 : en:Chapter 10
01:15:51.875 : en:Chapter 11
01:25:10.750 : en:Chapter 12
01:36:09.875 : en:Chapter 13-
-

Скриншоты

--
-Релиз от: Автор релиза: -
[free-tor.com].t14652.torrent 
Торрент: Зарегистрирован [ 2018-02-10 17:35 ] · 231A4FA2C760EAA6F7D3DB80DDF3766D0BE5E872

Скачать .torrent

Скачать .torrent

28 KB

Статус: проверено
.torrent скачан: 1 раз
Размер: 5,47 GB
Правила
4udaki(10-Фев-18)
Похожие темы
[Профиль] [ЛС]
Показать сообщения:    
Ответить на тему

Текущее время: 19-Фев 16:11

Часовой пояс: UTC + 4



Вы не можете начинать темы
Вы не можете отвечать на сообщения
Вы не можете редактировать свои сообщения
Вы не можете удалять свои сообщения
Вы не можете голосовать в опросах
Вы не можете прикреплять файлы к сообщениям
Вы можете скачивать файлы
Анализ веб сайтов Яндекс.Метрика Рейтинг@Mail.ru