Приключения Паддингтона 2 / Paddington 2 (Пол Кинг) [2017, фэнтези, комедия, семейный, BDRip 720p от EXKinoRay | iTunes]

Ответить на тему
Статистика раздачи [Обновить пиров]
Размер:  4,43 GB   |    Зарегистрирован:  3 месяца 9 дней   |    .torrent скачан:  27 раз
Сидов:  304  [  0 KB/s  ]   Личеров:  16  [  0 KB/s  ]   Подробная статистика пиров
 
   
 
 
Автор Сообщение

Skorp10n ®

Оффлайн

 Активный раздающий 1 Активный раздающий 2
 Активный релизер 1000 Активный релизер 1500 Активный релизер 2000 Активный релизер 250 Активный релизер 3000 Активный релизер 500 Активный релизер Фильмов (300) Активный Форумчанин 1 Активный Форумчанин 2 Активный Форумчанин 3 Активный Форумчанин 4 Друг трекера Карма 1000 Карма 1500 Карма 500 Меценат Ни дня без новостей Орденосец 1 степени Орденосец 2 степени Орденосец 3 степени Почетный орденосец Почетный репортер С Новым 2016 Годом! С Новым 2017 Годом! С Новым 2018 Годом! Супер Мега Контер Квейк ТОП-10

Пол: Мужской

Стаж: 2 года 10 месяцев

Наличие запрета:

Сообщений: 5536

Откуда: Free-Tor.com

Отдача: не определено

Загрузка: не определено

Нажми

Создавать темы 13-Мар-2018 15:11

[Цитировать]

Информация о фильме- Название: Приключения Паддингтона 2
Оригинальное название: Paddington 2
Год выхода: 2017
Жанр: Фэнтези, комедия, семейный
Режиссер: Пол Кинг
В ролях: Майкл Гэмбон, Имелда Стонтон, Бен Уишоу, Мадлен Харрис, Сэмюэл Джослин, Салли Хокинс, Хью Бонневилль, Джули Уолтерс, Мари-Франс Альварез, Санджив Бхаскар--О фильме:-В антикварном магазине Лондона обаятельный и хорошо воспитанный медведь Паддингтон находит уникальную старинную книгу. Пока он изо всех своих медвежьих сил старается накопить на нее деньги, редчайшее издание внезапно похищают. Паддингтон оказывается вовлечен в аферу века, затеянную знаменитым, но вышедшим в тираж актером, который ныне рекламирует собачьи консервы, а свой талант к перевоплощению использует в охоте за сокровищами, спрятанными по всему Лондону.-Страна: Великобритания, Франция, США
Студия: Amazon Prime Instant Video
Продолжительность: 01:43:17
Перевод: Дублированный | iTunes
-Качество: BDRip 720p
Видео: MPEG-4 AVC, 1280x536, 5120 Kbit/s, 24.000 fps
Звук:
Аудио #01: 48 kHz, AC3, 5.1, 384 Kbps | Дублированный | iTunes | RUS |
Аудио #02: 48 kHz, AC3, 5.1, 640 Kbps | Оригинал | ENG |
Субтитры: Английские
-

Скриншоты

--
-

MI

-General
Unique ID : 84378627981343816585936160337024615578 (0x3F7ABB8D9C5804EC151C9EA375AD849A)
Complete name : C:Video111Paddington.2.2017.BDRip.720p.ExKinoRay.mkv
Format : Matroska
Format version : Version 4 / Version 2
File size : 4.43 GiB
Duration : 1 h 43 min
Overall bit rate : 6 142 kb/s
Movie name : Paddington 2 2017 from ExKinoRay
Encoded date : UTC 2018-03-12 19:41:11
Writing application : mkvmerge v21.0.0 ('Tardigrades Will Inherit The Earth') 64-bit
Writing library : libebml v1.3.5 + libmatroska v1.4.8
Video
ID : 1
Format : AVC
Format/Info : Advanced Video Codec
Format profile : [email protected]
Format settings : CABAC / 12 Ref Frames
Format settings, CABAC : Yes
Format settings, ReFrames : 12 frames
Codec ID : V_MPEG4/ISO/AVC
Duration : 1 h 43 min
Bit rate : 5 120 kb/s
Width : 1 280 pixels
Height : 536 pixels
Display aspect ratio : 2.40:1
Frame rate mode : Constant
Frame rate : 24.000 FPS
Color space : YUV
Chroma subsampling : 4:2:0
Bit depth : 8 bits
Scan type : Progressive
Bits/(Pixel*Frame) : 0.311
Stream size : 3.69 GiB (83%)
Writing library : x264 core 148 r2705 3f5ed56
Encoding settings : cabac=1 / ref=12 / deblock=1:-2:-2 / analyse=0x3:0x133 / me=umh / subme=11 / psy=1 / psy_rd=1.05:0.05 / mixed_ref=1 / me_range=48 / chroma_me=1 / trellis=2 / 8x8dct=1 / cqm=0 / deadzone=21,11 / fast_pskip=0 / chroma_qp_offset=-3 / threads=12 / lookahead_threads=4 / sliced_threads=0 / nr=0 / decimate=0 / interlaced=0 / bluray_compat=0 / constrained_intra=0 / bframes=8 / b_pyramid=2 / b_adapt=2 / b_bias=0 / direct=3 / weightb=1 / open_gop=0 / weightp=2 / keyint=240 / keyint_min=24 / scenecut=40 / intra_refresh=0 / rc_lookahead=50 / rc=2pass / mbtree=0 / bitrate=5120 / ratetol=1.0 / qcomp=0.60 / qpmin=0 / qpmax=69 / qpstep=4 / cplxblur=20.0 / qblur=0.5 / vbv_maxrate=50000 / vbv_bufsize=62500 / nal_hrd=none / filler=0 / ip_ratio=1.40 / pb_ratio=1.30 / aq=3:0.80
Language : English
Default : Yes
Forced : No
Audio #1
ID : 2
Format : AC-3
Format/Info : Audio Coding 3
Codec ID : A_AC3
Duration : 1 h 43 min
Bit rate mode : Constant
Bit rate : 384 kb/s
Channel(s) : 6 channels
Channel positions : Front: L C R, Side: L R, LFE
Sampling rate : 48.0 kHz
Frame rate : 31.250 FPS (1536 SPF)
Bit depth : 16 bits
Compression mode : Lossy
Stream size : 284 MiB (6%)
Title : iTunes
Language : Russian
Service kind : Complete Main
Default : Yes
Forced : Yes
Audio #2
ID : 3
Format : AC-3
Format/Info : Audio Coding 3
Codec ID : A_AC3
Duration : 1 h 43 min
Bit rate mode : Constant
Bit rate : 640 kb/s
Channel(s) : 6 channels
Channel positions : Front: L C R, Side: L R, LFE
Sampling rate : 48.0 kHz
Frame rate : 31.250 FPS (1536 SPF)
Bit depth : 16 bits
Compression mode : Lossy
Stream size : 473 MiB (10%)
Title : Original
Language : English
Service kind : Complete Main
Default : No
Forced : No
Text #1
ID : 4
Format : UTF-8
Codec ID : S_TEXT/UTF8
Codec ID/Info : UTF-8 Plain Text
Duration : 1 h 35 min
Bit rate : 65 b/s
Count of elements : 1562
Stream size : 45.9 KiB (0%)
Title : Full
Language : English
Default : No
Forced : No
Text #2
ID : 5
Format : UTF-8
Codec ID : S_TEXT/UTF8
Codec ID/Info : UTF-8 Plain Text
Duration : 1 h 39 min
Bit rate : 86 b/s
Count of elements : 1823
Stream size : 62.7 KiB (0%)
Title : SDH
Language : English
Default : No
Forced : No
Menu
00:00:00.000 : en:00:00:00.000
00:08:08.542 : en:00:08:08.542
00:18:48.583 : en:00:18:48.583
00:27:06.000 : en:00:27:06.000
00:38:47.375 : en:00:38:47.375
00:47:46.917 : en:00:47:46.917
00:55:53.708 : en:00:55:53.708
01:02:17.500 : en:01:02:17.500
01:09:31.875 : en:01:09:31.875
01:16:39.042 : en:01:16:39.042
01:24:13.250 : en:01:24:13.250
01:33:50.000 : en:01:33:50.000-
-Релиз от: Автор релиза: -
[free-tor.com].t14926.torrent 
Торрент: Зарегистрирован [ 2018-03-13 15:11 ] · 2E1C110980E30510063B08A5B8AAAB58DFCD068F

Скачать .torrent

Скачать .torrent

23 KB

Статус: проверено
.torrent скачан: 27 раз
Размер: 4,43 GB
Правила
Похожие темы
[Профиль] [ЛС]
Показать сообщения:    
Ответить на тему

Текущее время: 22-Июн 20:44

Часовой пояс: UTC + 4



Вы не можете начинать темы
Вы не можете отвечать на сообщения
Вы не можете редактировать свои сообщения
Вы не можете удалять свои сообщения
Вы не можете голосовать в опросах
Вы не можете прикреплять файлы к сообщениям
Вы можете скачивать файлы
Анализ веб сайтов Яндекс.Метрика Рейтинг@Mail.ru