Путин. Документальный фильм Андрея Кондрашова [2018, Документальный, Политика, Биография, WEBRip, 1080p-LQ] (Части 1-2 из 2)

Ответить на тему
Статистика раздачи [Обновить пиров]
Размер:  8,61 GB   |    Зарегистрирован:  7 месяцев 25 дней   |    .torrent скачан:  5 раз
Сидов:  102  [  0 KB/s  ]   Личеров:  13  [  0 KB/s  ]   Подробная статистика пиров
 
   
 
 
Автор Сообщение

ndg ®

Оффлайн



Пол: Мужской

Стаж: 1 год 9 месяцев

Наличие запрета:

Сообщений: 72

Откуда: г. Павлодар

Отдача: не определено

Загрузка: не определено

Нажми

Создавать темы 25-Мар-2018 19:10

[Цитировать]

- Путин. Документальный фильм Андрея Кондрашова
(Части 1-2 из 2)
- Телекомпания: Россия, ВГТРК, РОО «Ассоциация «Наше Кино»
Жанр: Документальный, Политика, Биография
Участники: Владимир Путин, Николай Патрушев, Герхард Шредер, Сергей Шойгу, Рамзан Кадыров, Никита Михалков
Описание:
Впервые и так откровенно — друзья детства и юности, классный руководитель, сослуживцы по КГБ и коллеги по Штази. С кем Путин дрался во дворе и против кого с оружием выходил в Дрездене?..
Семья Путина. Откуда он родом? Его ДНК. Как один дед был поваром у Ленина, а другой спасал раненного им австрийца в окопах Первой Мировой. Кто застрелил бабушку Путина? Как погиб его старший брат? И как родители спасли друг друга?..
Берлускони сказал, что они с Путиным пьют секретные таблетки. Что это за препарат? Почему Шредер, оказавшийся в горящей бане, потом скажет, что никогда бы не смог быть Президентом России.
Сколько было покушений на Путина и как их предотвращали? История о том, как в декабре 89-го года немецкие демонстранты пришли брать здание советской резидентуры. Петербург в лихие 90-е. О политическом предательстве на Украине. Какой обман стал корнем киевского переворота? Неизвестные подробности штурма на Дубровке. И вся правда о президентской рыбалке. Кто и кого подсаживает Путину на крючок?

Продолжительность: 04:01:21
Качество видео: WEBRip http://www.sendspace.com/file/eh4mvz
Видео: AVC/H.264, 1920x1080 (16:9), ~4878 Kbps
Аудио: AAC, 2 ch, 247 Kbps

МИ

General
Unique ID : 222161557409067143704753918954283435108 (0xA722C2748746C8A854E950361CDF8464)
Complete name : D:\Film\ПУТИН\ПУТИН документальный фильм Андрея Кондрашова.mkv
Format : Matroska
Format version : Version 4 / Version 2
File size : 4.56 GiB
Duration : 2 h 8 min
Overall bit rate : 5 090 kb/s
Encoded date : UTC 2018-03-11 17:50:30
Writing application : mkvmerge v21.0.0 ('Tardigrades Will Inherit The Earth') 64-bit
Writing library : libebml v1.3.5 + libmatroska v1.4.8
Cover : Yes
Attachments : cover.png
Video
ID : 1
Format : AVC
Format/Info : Advanced Video Codec
Format profile : [email protected]
Format settings : CABAC / 4 Ref Frames
Format settings, CABAC : Yes
Format settings, RefFrames : 4 frames
Codec ID : V_MPEG4/ISO/AVC
Duration : 2 h 8 min
Bit rate : 4 878 kb/s
Width : 1 920 pixels
Height : 1 080 pixels
Display aspect ratio : 16:9
Frame rate mode : Constant
Frame rate : 25.000 FPS
Color space : YUV
Chroma subsampling : 4:2:0
Bit depth : 8 bits
Scan type : Progressive
Bits/(Pixel*Frame) : 0.094
Stream size : 4.34 GiB (95%)
Writing library : x264 core 152 r2851 ba24899
Encoding settings : cabac=1 / ref=4 / deblock=1:2:2 / analyse=0x3:0x113 / me=hex / subme=2 / psy=1 / psy_rd=1.00:0.00 / mixed_ref=1 / me_range=16 / chroma_me=1 / trellis=0 / 8x8dct=1 / cqm=0 / deadzone=21,11 / fast_pskip=1 / chroma_qp_offset=0 / threads=34 / lookahead_threads=8 / sliced_threads=0 / nr=0 / decimate=1 / interlaced=0 / bluray_compat=0 / constrained_intra=0 / bframes=0 / weightp=2 / keyint=75 / keyint_min=7 / scenecut=0 / intra_refresh=0 / rc_lookahead=40 / rc=abr / mbtree=1 / bitrate=4878 / ratetol=1.0 / qcomp=0.60 / qpmin=10 / qpmax=51 / qpstep=4 / ip_ratio=0.91 / aq=1:1.00
Language : Russian
Default : Yes
Forced : No
Audio
ID : 2
Format : AAC
Format/Info : Advanced Audio Codec
Format profile : LC
Codec ID : A_AAC-2
Duration : 2 h 8 min
Bit rate : 247 kb/s
Channel(s) : 2 channels
Channel positions : Front: L R
Sampling rate : 44.1 kHz
Frame rate : 43.066 FPS (1024 SPF)
Compression mode : Lossy
Stream size : 227 MiB (5%)
Language : Russian
Default : Yes
Forced : No
________________________________________________________________________________________________
General
Unique ID : 32560879462759498354831767565850759069 (0x187EFF4D9086B35536ECA92F0CC1CF9D)
Complete name : D:\Film\ПУТИН\ПУТИН документальный фильм Андрея Кондрашова Часть 2.mkv
Format : Matroska
Format version : Version 4 / Version 2
File size : 4.05 GiB
Duration : 1 h 52 min
Overall bit rate : 5 130 kb/s
Encoded date : UTC 2018-03-15 15:42:17
Writing application : mkvmerge v21.0.0 ('Tardigrades Will Inherit The Earth') 64-bit
Writing library : libebml v1.3.5 + libmatroska v1.4.8
Cover : Yes
Attachments : cover.png
Video
ID : 1
Format : AVC
Format/Info : Advanced Video Codec
Format profile : [email protected]
Format settings : CABAC / 4 Ref Frames
Format settings, CABAC : Yes
Format settings, ReFrames : 4 frames
Codec ID : V_MPEG4/ISO/AVC
Duration : 1 h 52 min
Bit rate : 4 878 kb/s
Width : 1 920 pixels
Height : 1 080 pixels
Display aspect ratio : 16:9
Frame rate mode : Constant
Frame rate : 25.000 FPS
Color space : YUV
Chroma subsampling : 4:2:0
Bit depth : 8 bits
Scan type : Progressive
Bits/(Pixel*Frame) : 0.094
Stream size : 3.85 GiB (95%)
Writing library : x264 core 152 r2851 ba24899
Encoding settings : cabac=1 / ref=4 / deblock=1:2:2 / analyse=0x3:0x113 / me=hex / subme=2 / psy=1 / psy_rd=1.00:0.00 / mixed_ref=1 / me_range=16 / chroma_me=1 / trellis=0 / 8x8dct=1 / cqm=0 / deadzone=21,11 / fast_pskip=1 / chroma_qp_offset=0 / threads=34 / lookahead_threads=8 / sliced_threads=0 / nr=0 / decimate=1 / interlaced=0 / bluray_compat=0 / constrained_intra=0 / bframes=0 / weightp=2 / keyint=75 / keyint_min=7 / scenecut=0 / intra_refresh=0 / rc_lookahead=40 / rc=abr / mbtree=1 / bitrate=4878 / ratetol=1.0 / qcomp=0.60 / qpmin=10 / qpmax=51 / qpstep=4 / ip_ratio=0.91 / aq=1:1.00
Default : Yes
Forced : No
Audio
ID : 2
Format : AAC
Format/Info : Advanced Audio Codec
Format profile : LC
Codec ID : A_AAC-2
Duration : 1 h 52 min
Bit rate : 247 kb/s
Channel(s) : 2 channels
Channel positions : Front: L R
Sampling rate : 44.1 kHz
Frame rate : 43.066 FPS (1024 SPF)
Compression mode : Lossy
Stream size : 200 MiB (5%)
Default : Yes
Forced : No
Скриншоты:

Скриншоты:

[free-tor.com].t15074.torrent 
Торрент: Зарегистрирован [ 2018-03-25 19:10 ] · F8E21A287AFDE6E3DF83CC1D0A82F165C8622AE1

Скачать .torrent

Скачать .torrent

173 KB

Статус: проверено
.torrent скачан: 5 раз
Размер: 8,61 GB
Правила
Похожие темы
[Профиль] [ЛС]
Показать сообщения:    
Ответить на тему

Текущее время: 20-Ноя 00:02

Часовой пояс: UTC + 4



Вы не можете начинать темы
Вы не можете отвечать на сообщения
Вы не можете редактировать свои сообщения
Вы не можете удалять свои сообщения
Вы не можете голосовать в опросах
Вы не можете прикреплять файлы к сообщениям
Вы можете скачивать файлы
Анализ веб сайтов Яндекс.Метрика Рейтинг@Mail.ru