Криптон / Krypton (Киаран Доннелли) [s01] [2018, фантастика, драма, приключения, боевик, WEBRip 1080p | Flarrow Films]

Ответить на тему
Статистика раздачи [Обновить пиров]
Размер:  29,11 GB   |    Зарегистрирован:  2 месяца 19 дней   |    .torrent скачан:  71 раз
Сидов:  5  [  0 KB/s  ]   Личеров:  1  [  0 KB/s  ]   Подробная статистика пиров
 
   
 
 
Автор Сообщение

4udaki ®

Оффлайн



Пол: Мужской

Стаж: 3 года 9 месяцев

Наличие запрета:

Сообщений: 3753

Откуда: free-tor.com

Отдача: 2 Mb/s

Загрузка: 20 Mb/s

Нажми

Создавать темы 25-Мар-2018 23:28

[Цитировать]

Криптон / Krypton-Год выпуска: 2018
Страна:
США
Жанр: фантастика, драма, приключения, боевик
Продолжительность: ~ 00:45:00 (серия)
Перевод: Любительский (многоголосый, закадровый) | Flarrow Films
Субтитры: отсутствуют-В ролях: Камерон Каффе, Джорджина Кэмпбелл, Йен МакЭлхинни, Эллиот Кауэн, Энн Огбомо, Расмус Хардайкер, Уоллис Дэй, Аарон Пьер, Гордон Александр, Una Carroll и др.
Режиссёр: Киаран Доннелли-Рейтинг:
-Описание: В центре фантастического сериала — события, происходившие на родной планете мальчика с необычными способностями, который стал Суперменом. Действие разворачивается за несколько десятилетий до гибели планеты. Дед Супермена, всю жизнь веривший в равенство всех жителей планеты Криптон, решает вести непримиримую борьбу с беспорядками и очистить славное имя Элов…-Качество: WEBRip 1080p
Формат: MKV (MPEG-4 AVC)
Видео: ~4 640 kb/s, 1920x1080, 23.976 fps
Аудио RUS: PCM (A_PCM/INT/LIT), 48 kHz, 1 ch, ~768 kb/s; AAC, 299 kb/s, 2 channels, 48.0 kHz-

Скриншоты

-

MediaInfo

General
Unique ID : 250913282197343304780406534500631328832 (0xBCC423EED19920F08993ACE994C23840)
Complete name : D:\Downloads\Serials\Krypton.S01.Flarrow.Films\Krypton.S01.E01.Flarrow.Films.mkv
Format : Matroska
Format version : Version 4 / Version 2
File size : 1.47 GiB
Duration : 43 min 15 s
Overall bit rate : 4 876 kb/s
Encoded date : UTC 2018-03-25 18:17:05
Writing application : mkvmerge v8.3.0 ('Over the Horizon') 64bit
Writing library : libebml v1.3.1 + libmatroska v1.4.2
Video
ID : 1
Format : AVC
Format/Info : Advanced Video Codec
Format profile : [email protected]
Format settings : CABAC / 1 Ref Frames
Format settings, CABAC : Yes
Format settings, ReFrames : 1 frame
Format settings, GOP : M=1, N=48
Codec ID : V_MPEG4/ISO/AVC
Duration : 43 min 15 s
Bit rate : 4 096 kb/s
Width : 1 920 pixels
Height : 1 080 pixels
Display aspect ratio : 16:9
Frame rate mode : Constant
Frame rate : 23.976 (24000/1001) FPS
Color space : YUV
Chroma subsampling : 4:2:0
Bit depth : 8 bits
Scan type : Progressive
Bits/(Pixel*Frame) : 0.082
Stream size : 1.24 GiB (84%)
Writing library : x264 core 120
Encoding settings : cabac=1 / ref=1 / deblock=1:0:0 / analyse=0x1:0x111 / me=hex / subme=6 / psy=1 / psy_rd=1.00:0.00 / mixed_ref=0 / me_range=16 / chroma_me=0 / trellis=1 / 8x8dct=0 / cqm=0 / deadzone=21,11 / fast_pskip=1 / chroma_qp_offset=-2 / threads=8 / sliced_threads=0 / nr=0 / decimate=1 / interlaced=0 / bluray_compat=0 / constrained_intra=0 / bframes=0 / weightp=2 / keyint=48 / keyint_min=25 / scenecut=0 / intra_refresh=0 / rc=abr / mbtree=0 / bitrate=4096 / ratetol=1.0 / qcomp=0.60 / qpmin=10 / qpmax=51 / qpstep=4 / ip_ratio=1.40 / aq=1:1.00
Default : Yes
Forced : No
Audio
ID : 2
Format : PCM
Format settings : Little / Signed
Codec ID : A_PCM/INT/LIT
Duration : 43 min 15 s
Bit rate mode : Constant
Bit rate : 768 kb/s
Sampling rate : 48.0 kHz
Frame rate : 32.000 FPS (1500 SPF)
Bit depth : 16 bits
Stream size : 238 MiB (16%)
Default : Yes
Forced : No
-

Над релизом работали

Релиз от:

Роли озвучивали:
Daelit, Лизавета,Тань-УХ-а, Ron, hAl, Sathal, Nogoodvoice и Shira Senpai.
-Релиз без рекламы-29.05.2018 обновлено. Добавлена 10-я серия. Сезон окончен.
[free-tor.com].t15078.torrent 
Торрент: Зарегистрирован [ 2018-05-29 20:00 ] · 68B525DF1CD94199034F8ACF3E20B8B6FB59456B

Скачать .torrent

Скачать .torrent

74 KB

Статус: проверено
.torrent скачан: 71 раз
Размер: 29,11 GB
Правила
Skorp10n(26-Мар-18)
Похожие темы
[Профиль] [ЛС]
Показать сообщения:    
Ответить на тему

Текущее время: 18-Авг 13:00

Часовой пояс: UTC + 4



Вы не можете начинать темы
Вы не можете отвечать на сообщения
Вы не можете редактировать свои сообщения
Вы не можете удалять свои сообщения
Вы не можете голосовать в опросах
Вы не можете прикреплять файлы к сообщениям
Вы можете скачивать файлы
Анализ веб сайтов Яндекс.Метрика Рейтинг@Mail.ru