Поезд на Париж / The 15:17 to Paris (Клинт Иствуд) [2018, триллер, драма, история, BDRip 1080p от ExKinoRay | Лицензия]

Ответить на тему
Статистика раздачи [Обновить пиров]
Размер:  7,2 GB   |    Зарегистрирован:  8 дней   |    .torrent скачан:  0 раз
Сидов:  151  [  0 KB/s  ]   Личеров:  10  [  0 KB/s  ]   Подробная статистика пиров
 
   
 
 
Автор Сообщение

Skorp10n ®

Оффлайн

 Активный раздающий 1 Активный раздающий 2
 Активный релизер 1000 Активный релизер 1500 Активный релизер 2000 Активный релизер 250 Активный релизер 3000 Активный релизер 500 Активный релизер Фильмов (300) Активный Форумчанин 1 Активный Форумчанин 2 Активный Форумчанин 3 Активный Форумчанин 4 Друг трекера Карма 1000 Карма 1500 Карма 500 Меценат Ни дня без новостей Орденосец 1 степени Орденосец 2 степени Орденосец 3 степени Почетный орденосец Почетный репортер С Новым 2016 Годом! С Новым 2017 Годом! С Новым 2018 Годом! Супер Мега Контер Квейк ТОП-10

Пол: Мужской

Стаж: 2 года 9 месяцев

Наличие запрета:

Сообщений: 5223

Откуда: Free-Tor.com

Отдача: не определено

Загрузка: не определено

Нажми

Создавать темы 15-Май-2018 19:17

[Цитировать]

Информация о фильме- Название: Поезд на Париж
Оригинальное название: The 15:17 to Paris
Год выхода: 2018
Жанр: Триллер, драма, история
Режиссер: Клинт Иствуд
В ролях: Спенсер Стоун, Энтони Сэдлер, Алек Скарлатос, Джуди Грир, Дженна Фишер, Рэй Корасани, Тони Хейл, Томас Леннон, Синква Уоллс, Лиллиэн Соланж Бодуан--О фильме: В центре сюжета события, произошедшие ранним вечером 21 августа 2015 года, когда весь мир, затаив дыхание, наблюдал за предотвращением террористической атаки в скоростном поезде N 9364 тремя бравыми молодыми американцами, которые в это время путешествовали по Европе.-Страна: США
Студия: Malpaso Productions
Продолжительность: 01:33:51
Перевод: Дублированный | Лицензия-Качество: BDRip 1080p
Видео: MPEG-4 AVC, 1920x804, 10.1 Mbit/s, 23.976 fps
Звук:
Аудио #01: 48 kHz, AC3, 5.1, 448 Kbps | Лицензия| RUS |
Аудио #02: 48 kHz, AC3, 5.1, 448 Kbps | Оригинал | ENG |
Субтитры: Русские (forced, full), английские-

Скриншоты

--
-

MI

-General
Unique ID : 189787006326708239949311391238949654824 (0x8EC7A5D9C2DBDC56990FBD3128D75128)
Complete name : C:Video111The.15.17.to.Paris.2018.Lic.BDRip.1080p.ExKinoRay.mkv
Format : Matroska
Format version : Version 4 / Version 2
File size : 7.20 GiB
Duration : 1 h 33 min
Overall bit rate : 11.0 Mb/s
Movie name : The 15 17 to Paris 2018 from ExKinoRay
Encoded date : UTC 2018-05-15 14:16:09
Writing application : mkvmerge v7.3.0 ('Nouages') 64bit built on Oct 22 2014 18:53:34
Writing library : libebml v1.3.0 + libmatroska v1.4.1
Video
ID : 1
Format : AVC
Format/Info : Advanced Video Codec
Format profile : [email protected]
Format settings : CABAC / 5 Ref Frames
Format settings, CABAC : Yes
Format settings, ReFrames : 5 frames
Codec ID : V_MPEG4/ISO/AVC
Duration : 1 h 33 min
Bit rate : 10.1 Mb/s
Width : 1 920 pixels
Height : 804 pixels
Display aspect ratio : 2.40:1
Frame rate mode : Constant
Frame rate : 23.976 (24000/1001) FPS
Color space : YUV
Chroma subsampling : 4:2:0
Bit depth : 8 bits
Scan type : Progressive
Bits/(Pixel*Frame) : 0.273
Stream size : 6.61 GiB (92%)
Writing library : x264 core 148 r2705 3f5ed56
Encoding settings : cabac=1 / ref=5 / deblock=1:-2:-2 / analyse=0x3:0x133 / me=umh / subme=10 / psy=1 / psy_rd=1.05:0.05 / mixed_ref=1 / me_range=24 / chroma_me=1 / trellis=2 / 8x8dct=1 / cqm=0 / deadzone=21,11 / fast_pskip=0 / chroma_qp_offset=-3 / threads=12 / lookahead_threads=2 / sliced_threads=0 / nr=0 / decimate=0 / interlaced=0 / bluray_compat=0 / constrained_intra=0 / bframes=8 / b_pyramid=2 / b_adapt=2 / b_bias=0 / direct=3 / weightb=1 / open_gop=0 / weightp=2 / keyint=240 / keyint_min=23 / scenecut=40 / intra_refresh=0 / rc_lookahead=50 / rc=2pass / mbtree=0 / bitrate=10100 / ratetol=1.0 / qcomp=0.60 / qpmin=0 / qpmax=51 / qpstep=4 / cplxblur=20.0 / qblur=0.5 / vbv_maxrate=50000 / vbv_bufsize=62500 / nal_hrd=none / filler=0 / ip_ratio=1.40 / pb_ratio=1.30 / aq=3:0.80
Language : English
Default : Yes
Forced : No
Audio #1
ID : 2
Format : AC-3
Format/Info : Audio Coding 3
Codec ID : A_AC3
Duration : 1 h 33 min
Bit rate mode : Constant
Bit rate : 448 kb/s
Channel(s) : 6 channels
Channel positions : Front: L C R, Side: L R, LFE
Sampling rate : 48.0 kHz
Frame rate : 31.250 FPS (1536 SPF)
Bit depth : 16 bits
Compression mode : Lossy
Stream size : 301 MiB (4%)
Title : Dub [License]
Language : Russian
Service kind : Complete Main
Default : Yes
Forced : Yes
Audio #2
ID : 3
Format : AC-3
Format/Info : Audio Coding 3
Codec ID : A_AC3
Duration : 1 h 33 min
Bit rate mode : Constant
Bit rate : 448 kb/s
Channel(s) : 6 channels
Channel positions : Front: L C R, Side: L R, LFE
Sampling rate : 48.0 kHz
Frame rate : 31.250 FPS (1536 SPF)
Bit depth : 16 bits
Compression mode : Lossy
Stream size : 301 MiB (4%)
Title : Original
Language : English
Service kind : Complete Main
Default : No
Forced : No
Text #1
ID : 4
Format : UTF-8
Codec ID : S_TEXT/UTF8
Codec ID/Info : UTF-8 Plain Text
Duration : 1 h 31 min
Bit rate : 4 b/s
Count of elements : 61
Stream size : 2.72 KiB (0%)
Title : Forced
Language : Russian
Default : Yes
Forced : Yes
Text #2
ID : 5
Format : UTF-8
Codec ID : S_TEXT/UTF8
Codec ID/Info : UTF-8 Plain Text
Duration : 1 h 27 min
Bit rate : 105 b/s
Count of elements : 1624
Stream size : 67.5 KiB (0%)
Title : Full
Language : Russian
Default : No
Forced : No
Text #3
ID : 6
Format : UTF-8
Codec ID : S_TEXT/UTF8
Codec ID/Info : UTF-8 Plain Text
Duration : 1 h 26 min
Bit rate : 78 b/s
Count of elements : 1560
Stream size : 49.9 KiB (0%)
Title : Full
Language : English
Default : No
Forced : No
Menu
00:00:00.000 : en:00:00:00.000
00:09:51.925 : en:00:09:51.925
00:19:23.204 : en:00:19:23.204
00:30:49.264 : en:00:30:49.264
00:44:00.304 : en:00:44:00.304
00:52:51.168 : en:00:52:51.168
01:04:22.609 : en:01:04:22.609
01:11:52.767 : en:01:11:52.767
01:21:46.151 : en:01:21:46.151
01:27:00.340 : en:01:27:00.340-
-Релиз от: Автор релиза: -
[free-tor.com].t15595.torrent 
Торрент: Зарегистрирован [ 2018-05-15 19:17 ] · E6AB99B293ABF083B38E8DFA84E608E1F8E8B903

Скачать .torrent

Скачать .torrent

37 KB

Статус: проверено
.torrent скачан: 0 раз
Размер: 7,2 GB
Правила
4udaki(16-Май-18)
Похожие темы
[Профиль] [ЛС]
Показать сообщения:    
Ответить на тему

Текущее время: 23-Май 22:54

Часовой пояс: UTC + 4



Вы не можете начинать темы
Вы не можете отвечать на сообщения
Вы не можете редактировать свои сообщения
Вы не можете удалять свои сообщения
Вы не можете голосовать в опросах
Вы не можете прикреплять файлы к сообщениям
Вы можете скачивать файлы
Анализ веб сайтов Яндекс.Метрика Рейтинг@Mail.ru