Поезд на Париж / The 15:17 to Paris (Клинт Иствуд) [2018, триллер, драма, история, BDRemux 1080p от ExKinoRay | Лицензия]

Ответить на тему
Статистика раздачи [Обновить пиров]
Размер:  18,05 GB   |    Зарегистрирован:  8 дней   |    .torrent скачан:  1 раз
Сидов:  57  [  0 KB/s  ]   Личеров:  11  [  0 KB/s  ]   Подробная статистика пиров
 
   
 
 
Автор Сообщение

Skorp10n ®

Оффлайн

 Активный раздающий 1 Активный раздающий 2
 Активный релизер 1000 Активный релизер 1500 Активный релизер 2000 Активный релизер 250 Активный релизер 3000 Активный релизер 500 Активный релизер Фильмов (300) Активный Форумчанин 1 Активный Форумчанин 2 Активный Форумчанин 3 Активный Форумчанин 4 Друг трекера Карма 1000 Карма 1500 Карма 500 Меценат Ни дня без новостей Орденосец 1 степени Орденосец 2 степени Орденосец 3 степени Почетный орденосец Почетный репортер С Новым 2016 Годом! С Новым 2017 Годом! С Новым 2018 Годом! Супер Мега Контер Квейк ТОП-10

Пол: Мужской

Стаж: 2 года 9 месяцев

Наличие запрета:

Сообщений: 5223

Откуда: Free-Tor.com

Отдача: не определено

Загрузка: не определено

Нажми

Создавать темы 15-Май-2018 19:17

[Цитировать]

Информация о фильме- Название: Поезд на Париж
Оригинальное название: The 15:17 to Paris
Год выхода: 2018
Жанр: Триллер, драма, история
Режиссер: Клинт Иствуд
В ролях: Спенсер Стоун, Энтони Сэдлер, Алек Скарлатос, Джуди Грир, Дженна Фишер, Рэй Корасани, Тони Хейл, Томас Леннон, Синква Уоллс, Лиллиэн Соланж Бодуан--О фильме: В центре сюжета события, произошедшие ранним вечером 21 августа 2015 года, когда весь мир, затаив дыхание, наблюдал за предотвращением террористической атаки в скоростном поезде N 9364 тремя бравыми молодыми американцами, которые в это время путешествовали по Европе.-Страна: США
Студия: Malpaso Productions
Продолжительность: 01:33:51
Перевод: Дублированный | Лицензия-Качество: BDRemux 1080p
Видео: MPEG-4 AVC, 1920x1080, 23.2 Mbit/s, 23.976 fps
Звук:
Аудио #01: 48 kHz, AC3, 5.1, 448 Kbps | Лицензия| RUS |
Аудио #02: 48 kHz, TrueHD, 7.1, 3323 Kbps | Оригинал | ENG |
Аудио #03: 48 kHz, AC3, 5.1, 448 Kbps | Оригинал | ENG |
Субтитры: Русские (forced, full), английские-

Скриншоты

--
-

MI

-General
Unique ID : 181124900621809912299338443101145571331 (0x88436311005AFC885B2382544142A003)
Complete name : C:Video111The.15.17.to.Paris.2018.Lic.BDREMUX.1080p.ExKinoRay.mkv
Format : Matroska
Format version : Version 4 / Version 2
File size : 18.1 GiB
Duration : 1 h 33 min
Overall bit rate mode : Variable
Overall bit rate : 27.5 Mb/s
Movie name : The 15 17 to Paris 2018 from ExKinoRay
Encoded date : UTC 2018-05-15 14:24:50
Writing application : mkvmerge v22.0.0 ('At The End Of The World') 64-bit
Writing library : libebml v1.3.5 + libmatroska v1.4.8
Video
ID : 1
Format : AVC
Format/Info : Advanced Video Codec
Format profile : [email protected]
Format settings : CABAC / 4 Ref Frames
Format settings, CABAC : Yes
Format settings, ReFrames : 4 frames
Codec ID : V_MPEG4/ISO/AVC
Duration : 1 h 33 min
Bit rate mode : Variable
Bit rate : 23.2 Mb/s
Maximum bit rate : 28.0 Mb/s
Width : 1 920 pixels
Height : 1 080 pixels
Display aspect ratio : 16:9
Frame rate mode : Constant
Frame rate : 23.976 (24000/1001) FPS
Color space : YUV
Chroma subsampling : 4:2:0
Bit depth : 8 bits
Scan type : Progressive
Bits/(Pixel*Frame) : 0.468
Stream size : 15.2 GiB (84%)
Language : English
Default : Yes
Forced : No
Audio #1
ID : 2
Format : AC-3
Format/Info : Audio Coding 3
Codec ID : A_AC3
Duration : 1 h 33 min
Bit rate mode : Constant
Bit rate : 448 kb/s
Channel(s) : 6 channels
Channel positions : Front: L C R, Side: L R, LFE
Sampling rate : 48.0 kHz
Frame rate : 31.250 FPS (1536 SPF)
Bit depth : 16 bits
Compression mode : Lossy
Stream size : 301 MiB (2%)
Title : Dub [License]
Language : Russian
Service kind : Complete Main
Default : Yes
Forced : Yes
Audio #2
ID : 3
Format : TrueHD
Format profile : TrueHD+Atmos / TrueHD
Codec ID : A_TRUEHD
Duration : 1 h 33 min
Bit rate mode : Variable
Bit rate : 3 323 kb/s
Maximum bit rate : 5 733 kb/s
Channel(s) : Object Based / 8 channels
Channel positions : Object Based / Front: L C R, Side: L R, Back: L R, LFE
Sampling rate : / 48.0 kHz
Frame rate : 1 200.000 FPS (40 SPF)
Compression mode : Lossless
Stream size : 2.18 GiB (12%)
Title : Original
Language : English
Default : No
Forced : No
Audio #3
ID : 4
Format : AC-3
Format/Info : Audio Coding 3
Codec ID : A_AC3
Duration : 1 h 33 min
Bit rate mode : Constant
Bit rate : 448 kb/s
Channel(s) : 6 channels
Channel positions : Front: L C R, Side: L R, LFE
Sampling rate : 48.0 kHz
Frame rate : 31.250 FPS (1536 SPF)
Bit depth : 16 bits
Compression mode : Lossy
Stream size : 301 MiB (2%)
Language : English
Service kind : Complete Main
Default : No
Forced : No
Text #1
ID : 5
Format : UTF-8
Codec ID : S_TEXT/UTF8
Codec ID/Info : UTF-8 Plain Text
Duration : 1 h 31 min
Bit rate : 4 b/s
Count of elements : 61
Stream size : 2.72 KiB (0%)
Title : Forced
Language : Russian
Default : Yes
Forced : Yes
Text #2
ID : 6
Format : UTF-8
Codec ID : S_TEXT/UTF8
Codec ID/Info : UTF-8 Plain Text
Duration : 1 h 27 min
Bit rate : 105 b/s
Count of elements : 1624
Stream size : 67.5 KiB (0%)
Title : Full
Language : Russian
Default : No
Forced : No
Text #3
ID : 7
Format : UTF-8
Codec ID : S_TEXT/UTF8
Codec ID/Info : UTF-8 Plain Text
Duration : 1 h 26 min
Bit rate : 78 b/s
Count of elements : 1560
Stream size : 49.9 KiB (0%)
Title : Full
Language : English
Default : No
Forced : No
Menu
00:00:00.000 : en:00:00:00.000
00:09:51.925 : en:00:09:51.925
00:19:23.204 : en:00:19:23.204
00:30:49.264 : en:00:30:49.264
00:44:00.304 : en:00:44:00.304
00:52:51.168 : en:00:52:51.168
01:04:22.609 : en:01:04:22.609
01:11:52.767 : en:01:11:52.767
01:21:46.151 : en:01:21:46.151
01:27:00.340 : en:01:27:00.340-
-

eac3to log

-eac3to v3.34
command line: eac3to "E:DownloadsThe 1517 to Paris 2018 BluRay 1080p AVC Atmos TrueHD7.1" 1) -demux
------------------------------------------------------------------------------
M2TS, 1 video track, 6 audio tracks, 11 subtitle tracks, 1:33:52, 24p /1.001
1: Chapters, 10 chapters
2: h264/AVC, 1080p24 /1.001 (16:9)
3: TrueHD/AC3 (Atmos), English, 7.1 channels, 48kHz
(embedded: AC3 EX, 5.1 channels, 448kbps, 48kHz, dialnorm: -27dB)
4: DTS Master Audio, English, 5.1 channels, 16 bits, 48kHz
(core: DTS, 5.1 channels, 1509kbps, 48kHz)
5: AC3, English, 5.1 channels, 448kbps, 48kHz, dialnorm: -27dB
6: AC3, French, 5.1 channels, 448kbps, 48kHz, dialnorm: -27dB
7: AC3, Spanish, 5.1 channels, 448kbps, 48kHz, dialnorm: -27dB
8: AC3, Portuguese, 5.1 channels, 448kbps, 48kHz, dialnorm: -27dB
9: Subtitle (PGS), English
10: Subtitle (PGS), French
11: Subtitle (PGS), Spanish
12: Subtitle (PGS), Portuguese
13: Subtitle (PGS), French
14: Subtitle (PGS), Spanish
15: Subtitle (PGS), Portuguese
16: Subtitle (PGS), Chinese
17: Subtitle (PGS), Chinese
18: Subtitle (PGS), Chinese
19: Subtitle (PGS), Chinese
Creating file "00052 - Chapters.txt"...
[s18] Extracting subtitle track number 18...
[v02] Extracting video track number 2...
[s10] Extracting subtitle track number 10...
[s16] Extracting subtitle track number 16...
[a07] Extracting audio track number 7...
[s14] Extracting subtitle track number 14...
[a03] Extracting audio track number 3...
[a05] Extracting audio track number 5...
[s11] Extracting subtitle track number 11...
[a08] Extracting audio track number 8...
[s13] Extracting subtitle track number 13...
[s15] Extracting subtitle track number 15...
[s12] Extracting subtitle track number 12...
[s17] Extracting subtitle track number 17...
[s09] Extracting subtitle track number 9...
[s19] Extracting subtitle track number 19...
[a04] Extracting audio track number 4...
[a06] Extracting audio track number 6...
[a03] Creating file "00052 - 3 - TrueHD+AC3 (Atmos), English, 7.1 channels, 48kHz.thd+ac3"...
[a04] Creating file "00052 - 4 - DTS Master Audio, English, 5.1 channels, 16 bits, 48kHz.dtsma"...
[v02] Creating file "00052 - 2 - h264, 1080p24.h264"...
[a07] Creating file "00052 - 7 - AC3, Spanish, 5.1 channels, 448kbps, 48kHz.ac3"...
[a06] Creating file "00052 - 6 - AC3, French, 5.1 channels, 448kbps, 48kHz.ac3"...
[a08] Creating file "00052 - 8 - AC3, Portuguese, 5.1 channels, 448kbps, 48kHz.ac3"...
[a05] Creating file "00052 - 5 - AC3, English, 5.1 channels, 448kbps, 48kHz.ac3"...
[s19] Creating file "00052 - 19 - Subtitle (PGS), Chinese.sup"...
[s17] Creating file "00052 - 17 - Subtitle (PGS), Chinese.sup"...
[s09] Creating file "00052 - 9 - Subtitle (PGS), English.sup"...
[s12] Creating file "00052 - 12 - Subtitle (PGS), Portuguese.sup"...
[s11] Creating file "00052 - 11 - Subtitle (PGS), Spanish.sup"...
[s10] Creating file "00052 - 10 - Subtitle (PGS), French.sup"...
[s18] Creating file "00052 - 18 - Subtitle (PGS), Chinese.sup"...
[s16] Creating file "00052 - 16 - Subtitle (PGS), Chinese.sup"...
[s15] Creating file "00052 - 15 - Subtitle (PGS), Portuguese.sup"...
[s14] Creating file "00052 - 14 - Subtitle (PGS), Spanish.sup"...
[s13] Creating file "00052 - 13 - Subtitle (PGS), French.sup"...
Video track 2 contains 135027 frames.
Subtitle track 9 contains 1697 captions.
Subtitle track 10 contains 1280 captions.
Subtitle track 11 contains 1464 captions.
Subtitle track 12 contains 1460 captions.
Subtitle track 13 contains 6 captions.
Subtitle track 14 contains 45 captions.
Subtitle track 15 contains 48 captions.
Subtitle track 16 contains 1722 captions.
Subtitle track 17 contains 1723 captions.
Subtitle track 18 contains 1722 captions.
Subtitle track 19 contains 1723 captions.
eac3to processing took 2 minutes, 14 seconds.
Done.-
-Релиз от: Автор релиза: -
[free-tor.com].t15596.torrent 
Торрент: Зарегистрирован [ 2018-05-15 19:17 ] · 04D66C3EE8B31C51738C2E309D3447AFEBFF8307

Скачать .torrent

Скачать .torrent

91 KB

Статус: проверено
.torrent скачан: 1 раз
Размер: 18,05 GB
Правила
4udaki(16-Май-18)
Похожие темы
[Профиль] [ЛС]
Показать сообщения:    
Ответить на тему

Текущее время: 23-Май 22:52

Часовой пояс: UTC + 4



Вы не можете начинать темы
Вы не можете отвечать на сообщения
Вы не можете редактировать свои сообщения
Вы не можете удалять свои сообщения
Вы не можете голосовать в опросах
Вы не можете прикреплять файлы к сообщениям
Вы можете скачивать файлы
Анализ веб сайтов Яндекс.Метрика Рейтинг@Mail.ru