Излом времени / A Wrinkle in Time (Ава ДюВерней) [2018, фантастика, фэнтези, приключения, семейный, BDRemux 1080p от ExKinoRay | iTunes]

Ответить на тему
Статистика раздачи [Обновить пиров]
Размер:  28,1 GB   |    Зарегистрирован:  6 дней   |    .torrent скачан:  1 раз
Сидов:  57  [  0 KB/s  ]   Личеров:  11  [  0 KB/s  ]   Подробная статистика пиров
 
   
 
 
Автор Сообщение

Skorp10n ®

Оффлайн

 Активный раздающий 1 Активный раздающий 2
 Активный релизер 1000 Активный релизер 1500 Активный релизер 2000 Активный релизер 250 Активный релизер 3000 Активный релизер 500 Активный релизер Фильмов (300) Активный Форумчанин 1 Активный Форумчанин 2 Активный Форумчанин 3 Активный Форумчанин 4 Друг трекера Карма 1000 Карма 1500 Карма 500 Меценат Ни дня без новостей Орденосец 1 степени Орденосец 2 степени Орденосец 3 степени Почетный орденосец Почетный репортер С Новым 2016 Годом! С Новым 2017 Годом! С Новым 2018 Годом! Супер Мега Контер Квейк ТОП-10

Пол: Мужской

Стаж: 2 года 10 месяцев

Наличие запрета:

Сообщений: 5508

Откуда: Free-Tor.com

Отдача: не определено

Загрузка: не определено

Нажми

Создавать темы 13-Июн-2018 12:50

[Цитировать]

Информация о фильме- Название: Излом времени
Оригинальное название: A Wrinkle in Time
Год выхода: 2018
Жанр: Фантастика, фэнтези, приключения, семейный
Режиссер: Ава ДюВерней
В ролях: Сторм Рейд, Опра Уинфри, Риз Уизерспун, Минди Кейлинг, Леви Миллер, Дерик Маккейб, Крис Пайн, Гугу Мбата-Роу, Зак Галифианакис, Майкл Пенья, Андре Холлэнд, Роуэн Бланчард, Беллами Янг, Дэвид Ойелоуо, Конрад Робертс, Ивет Кейсон, Уилл МакКормак, Дэниэл МакФерсон, Тэрин Лук, Тим Кенг, Лайрик Уилсон--О фильме: Юная Мэг вместе с младшим братом и школьным приятелем решает отправиться на поиски своего отца, учёного-физика, пропавшего в ходе научного эксперимента. Найти его предстоит не в привычном мире, а в таинственных изломах времени и пространства, где понятие реальности относительно и ничему нельзя верить! Выбраться из фантастических миров и победить тьму, которая распространяется по вселенной, можно, только изучив себя и приняв свои недостатки.-Страна: США
Студия: Walt Disney Pictures
Продолжительность: 01:49:37
Перевод: Дублированный | iTunes-Качество: BDRemux 1080p
Видео: MPEG-4 AVC, 1920x1080, 31.6 Mbit/s, 23.976 fps
Звук:
Аудио #01: 48 kHz, AC3, 5.1, 384 Kbps | iTunes | RUS |
Аудио #02: 48 kHz, DTS-HD MA, 7.1, 4757 Kbps | Оригинал | ENG |
Субтитры: Русские (full), английские-

Скриншоты

--
-

MI

-General
Unique ID : 217677534007991453262456543038813809314 (0xA3C32B086192E23A76C81CA9EDA4AAA2)
Complete name : D:Video111A.Wrinkle.in.Time.2018.BDREMUX.1080p.ExKinoRay.mkv
Format : Matroska
Format version : Version 4 / Version 2
File size : 28.1 GiB
Duration : 1 h 49 min
Overall bit rate mode : Variable
Overall bit rate : 36.6 Mb/s
Movie name : A Wrinkle in Time 2018 from ExKinoRay
Encoded date : UTC 2018-06-07 22:30:05
Writing application : mkvmerge v23.0.0 ('The Bride Said No') 64-bit
Writing library : libebml v1.3.6 + libmatroska v1.4.9
Video
ID : 1
Format : AVC
Format/Info : Advanced Video Codec
Format profile : [email protected]
Format settings : CABAC / 4 Ref Frames
Format settings, CABAC : Yes
Format settings, ReFrames : 4 frames
Codec ID : V_MPEG4/ISO/AVC
Duration : 1 h 49 min
Bit rate mode : Variable
Bit rate : 31.6 Mb/s
Maximum bit rate : 34.0 Mb/s
Width : 1 920 pixels
Height : 1 080 pixels
Display aspect ratio : 16:9
Frame rate mode : Constant
Frame rate : 23.976 (24000/1001) FPS
Color space : YUV
Chroma subsampling : 4:2:0
Bit depth : 8 bits
Scan type : Progressive
Bits/(Pixel*Frame) : 0.635
Stream size : 24.2 GiB (86%)
Language : English
Default : Yes
Forced : No
Audio #1
ID : 2
Format : AC-3
Format/Info : Audio Coding 3
Codec ID : A_AC3
Duration : 1 h 49 min
Bit rate mode : Constant
Bit rate : 384 kb/s
Channel(s) : 6 channels
Channel positions : Front: L C R, Side: L R, LFE
Sampling rate : 48.0 kHz
Frame rate : 31.250 FPS (1536 SPF)
Bit depth : 16 bits
Compression mode : Lossy
Stream size : 302 MiB (1%)
Title : iTunes
Language : Russian
Service kind : Complete Main
Default : Yes
Forced : Yes
Audio #2
ID : 3
Format : DTS
Format/Info : Digital Theater Systems
Format profile : MA / Core
Codec ID : A_DTS
Duration : 1 h 49 min
Bit rate mode : Variable / Constant
Bit rate : 4 757 kb/s / 1 509 kb/s
Channel(s) : 8 channels / 6 channels
Channel positions : Front: L C R, Side: L R, Back: L R, LFE / Front: L C R, Side: L R, LFE
Sampling rate : 48.0 kHz
Frame rate : 93.750 FPS (512 SPF)
Bit depth : 24 bits
Compression mode : Lossless / Lossy
Stream size : 3.64 GiB (13%)
Title : Original
Language : English
Default : No
Forced : No
Text #1
ID : 4
Format : UTF-8
Codec ID : S_TEXT/UTF8
Codec ID/Info : UTF-8 Plain Text
Duration : 1 h 38 min
Bit rate : 74 b/s
Count of elements : 1302
Stream size : 53.7 KiB (0%)
Title : Full
Language : Russian
Default : No
Forced : No
Text #2
ID : 5
Format : UTF-8
Codec ID : S_TEXT/UTF8
Codec ID/Info : UTF-8 Plain Text
Duration : 1 h 45 min
Bit rate : 46 b/s
Count of elements : 1433
Stream size : 35.6 KiB (0%)
Title : Full
Language : English
Default : No
Forced : No
Text #3
ID : 6
Format : UTF-8
Codec ID : S_TEXT/UTF8
Codec ID/Info : UTF-8 Plain Text
Duration : 1 h 46 min
Bit rate : 51 b/s
Count of elements : 1597
Stream size : 40.7 KiB (0%)
Title : SDH
Language : English
Default : No
Forced : No
Menu
00:00:00.000 : en:00:00:00.000
00:09:39.871 : en:00:09:39.871
00:13:46.868 : en:00:13:46.868
00:18:04.083 : en:00:18:04.083
00:21:28.287 : en:00:21:28.287
00:28:32.502 : en:00:28:32.502
00:39:14.811 : en:00:39:14.811
00:48:41.252 : en:00:48:41.252
00:54:03.198 : en:00:54:03.198
01:03:04.531 : en:01:03:04.531
01:09:48.267 : en:01:09:48.267
01:19:03.197 : en:01:19:03.197
01:29:05.549 : en:01:29:05.549
01:40:03.497 : en:01:40:03.497-
-Релиз от: Автор релиза: -
[free-tor.com].t15865.torrent 
Торрент: Зарегистрирован [ 2018-06-13 12:50 ] · 129F233781E0B6690037844DBC836BF05B48FD15

Скачать .torrent

Скачать .torrent

142 KB

Статус: проверено
.torrent скачан: 1 раз
Размер: 28,1 GB
Правила
Похожие темы
[Профиль] [ЛС]
Показать сообщения:    
Ответить на тему

Текущее время: 20-Июн 09:19

Часовой пояс: UTC + 4



Вы не можете начинать темы
Вы не можете отвечать на сообщения
Вы не можете редактировать свои сообщения
Вы не можете удалять свои сообщения
Вы не можете голосовать в опросах
Вы не можете прикреплять файлы к сообщениям
Вы можете скачивать файлы
Анализ веб сайтов Яндекс.Метрика Рейтинг@Mail.ru