Истерия / Delirium (Дэннис Илиадис) [2018, ужасы, триллер, WEB-DL 1080p | iTunes]

Ответить на тему
Статистика раздачи [Обновить пиров]
Размер:  3,56 GB   |    Зарегистрирован:  6 дней   |    .torrent скачан:  2 раза
Сидов:  1489  [  0 KB/s  ]   Личеров:  39  [  0 KB/s  ]   Подробная статистика пиров
 
   
 
 
Автор Сообщение

Skorp10n ®

Оффлайн

 Активный раздающий 1 Активный раздающий 2
 Активный релизер 1000 Активный релизер 1500 Активный релизер 2000 Активный релизер 250 Активный релизер 3000 Активный релизер 500 Активный релизер Фильмов (300) Активный Форумчанин 1 Активный Форумчанин 2 Активный Форумчанин 3 Активный Форумчанин 4 Друг трекера Карма 1000 Карма 1500 Карма 500 Меценат Ни дня без новостей Орденосец 1 степени Орденосец 2 степени Орденосец 3 степени Почетный орденосец Почетный репортер С Новым 2016 Годом! С Новым 2017 Годом! С Новым 2018 Годом! Супер Мега Контер Квейк ТОП-10

Пол: Мужской

Стаж: 2 года 10 месяцев

Наличие запрета:

Сообщений: 5508

Откуда: Free-Tor.com

Отдача: не определено

Загрузка: не определено

Нажми

Создавать темы 13-Июн-2018 13:10

[Цитировать]

Информация о фильме- Название: Истерия
Оригинальное название: Delirium
Год выпуска: 2018
Жанр: ужасы, триллер
В ролях: Тофер Грэйс, Дженезис Родригез, Патришия Кларксон, Каллэн Мулвей, Робин Томас, Дэйзи МакКрэкин, Коуди Салливан, Браден Фицджералд, Марти Эли Шварц, Келли Барксдэйл, ...
Режиссёр: Дэннис Илиадис-Описание:-Бывший пациент клиники для душевнобольных возвращается в роскошный особняк, доставшийся ему после смерти родителей. В этом доме прошло все его детство, и с ним связано много ярких воспоминаний. Но со временем в доме начинают происходить странные и пугающие вещи. Или это все — в его голове?--Страна: США
Продолжительность: 01:36:06
Перевод: Дублированный [iTunes]
Субтитры: Нет-Файл-Качество: WEB-DL 1080p
Формат: MKV
Видео: MPEG-4 AVC, 4919 КБ/с, 1908x1028, 23,976 fps
Аудио: AC-3, 6 ch, 348 Kbps, 48,0 KHz [RUS]-

M/I

-Общее
Уникальный идентификатор : 97203162662794311729351367681565111288 (0x4920A5EE375DC995ED56EAC45F61B3F8)
Полное имя : E:Истерияisteriya_2018_WEB-DL1080_iTunes_RG_NEW_MOWER.mkv
Формат : Matroska
Версия формата : Version 4 / Version 2
Размер файла : 3,56 Гбайт
Продолжительность : 1 ч. 36 м.
Общий поток : 5302 Кбит/сек
Дата кодирования : UTC 2018-06-12 15:40:32
Программа кодирования : mkvmerge v23.0.0 ('The Bride Said No') 32-bit
Библиотека кодирования : libebml v1.3.6 + libmatroska v1.4.9
Видео
Идентификатор : 2
Формат : AVC
Формат/Информация : Advanced Video Codec
Профиль формата : [email protected]
Параметр CABAC формата : Да
Параметр ReFrames формата : 4 кадра
Идентификатор кодека : V_MPEG4/ISO/AVC
Продолжительность : 1 ч. 36 м.
Битрейт : 4916 Кбит/сек
Ширина : 1908 пикселей
Высота : 1028 пикселей
Соотношение сторон : 1,85:1
Режим частоты кадров : Постоянный
Частота кадров : 23,976 кадра/сек
Цветовое пространство : YUV
Субдискретизация насыщенности : 4:2:0
Битовая глубина : 8 бит
Тип развёртки : Прогрессивная
Бит/(Пиксели*Кадры) : 0.105
Размер потока : 3,30 Гбайт (93%)
Язык : English
Default : Да
Forced : Нет
Цветовой диапазон : Limited
Основные цвета : BT.709
Характеристики трансфера : BT.709
Коэффициенты матрицы : BT.709
Аудио
Идентификатор : 1
Формат : AC-3
Формат/Информация : Audio Coding 3
Параметр Endianness формата : Big
Идентификатор кодека : A_AC3
Продолжительность : 1 ч. 36 м.
Вид битрейта : Постоянный
Битрейт : 384 Кбит/сек
Каналы : 6 каналов
Расположение каналов : Front: L C R, Side: L R, LFE
Частота : 48,0 КГц
Частота кадров : 31,250 кадров/сек (1536 spf)
Битовая глубина : 16 бит
Метод сжатия : С потерями
Задержка видео : -42 мс.
Размер потока : 264 Мбайт (7%)
Язык : Russian
ServiceKind : Complete Main
Default : Да
Forced : Нет
Меню
00:00:00.000 : en:1
00:03:43.000 : en:2
00:13:45.000 : en:3
00:24:11.000 : en:4
00:34:01.000 : en:5
00:43:49.000 : en:6
00:55:05.000 : en:7
01:04:02.000 : en:8
01:13:01.000 : en:9
01:19:19.000 : en:10
01:30:11.000 : en:11-
-

Скриншоты

--
-
[free-tor.com].t15871.torrent 
Торрент: Зарегистрирован [ 2018-06-13 13:10 ] · D2CA0C8FB29F747FD71D14B9217B57239A2B7443

Скачать .torrent

Скачать .torrent

19 KB

Статус: проверено
.torrent скачан: 2 раз
Размер: 3,56 GB
Правила
Похожие темы
[Профиль] [ЛС]
Показать сообщения:    
Ответить на тему

Текущее время: 20-Июн 09:10

Часовой пояс: UTC + 4



Вы не можете начинать темы
Вы не можете отвечать на сообщения
Вы не можете редактировать свои сообщения
Вы не можете удалять свои сообщения
Вы не можете голосовать в опросах
Вы не можете прикреплять файлы к сообщениям
Вы можете скачивать файлы
Анализ веб сайтов Яндекс.Метрика Рейтинг@Mail.ru