(Classic Rock, Hard Rock) Uriah Heep - It Was 40 Years Ago - 2016 [FLAC, tracks+.cue, lossless]

Ответить на тему
 
Автор Сообщение

sergej644 ®

Оффлайн

 1-е место

Пол: Мужской

Стаж: 11 месяцев 3 дня

Наличие запрета:

Сообщений: 21

Отдача: 50 Mb/s

Загрузка: 50 Mb/s

Нажми

Создавать темы 08-Янв-2016 21:42

[Цитировать]

-Uriah Heep / It Was 40 Years Ago-- Год издания: 2016
Страна: UK
Жанр: Classic Rock, Hard Rock
Продолжительность: 01:10:48-Лейбл издания: Chinese Dragon Music Co. Ltd
Тип альбома: Compilation
Страна-выпуска диска: Taiwan
Номер по каталогу: CDM-UR-CDC-06
Формат: FLAC
Битрейт аудио: lossless
Тип рипа: tracks+.cue
Наличие сканов в содержимом раздачи: да
-

Трэклист

01. Free Me (03:33)
02. Illusion (05:04)
03. The Hanging Tree (03:42)
04. Crime Of Passion (03:37)
05. Wise Man (04:43)
06. Name Of The Game (05:00)
07. If I Had The Time (05:37)
08. Rain (04:01)
09. Easy Livin' (02:37)
10. The Wizard (03:00)
11. July Morning (10:32)
12. Look at Yourself (05:11)
13. Lady In Black (04:43)
14. Come Away Melinda (03:50)
15. The Park (05:42)
-

Лог создания рипа

Exact Audio Copy V0.99 prebeta 5 from 4. May 2009
EAC extraction logfile from 7. January 2016, 4:39
Uriah Heep / It Was 40 Years Ago
Used drive  : ASUS    DRW-24B5ST   Adapter: 1  ID: 0
Read mode               : Secure
Utilize accurate stream : Yes
Defeat audio cache      : Yes
Make use of C2 pointers : No
Read offset correction                      : 6
Overread into Lead-In and Lead-Out          : No
Fill up missing offset samples with silence : Yes
Delete leading and trailing silent blocks   : No
Null samples used in CRC calculations       : Yes
Used interface                              : Native Win32 interface for Win NT & 2000
Gap handling                                : Appended to previous track
Used output format : Internal WAV Routines
Sample format      : 44.100 Hz; 16 Bit; Stereo
TOC of the extracted CD
     Track |   Start  |  Length  | Start sector | End sector
    ---------------------------------------------------------
        1  |  0:00.00 |  3:32.07 |         0    |    15906
        2  |  3:32.07 |  5:04.00 |     15907    |    38706
        3  |  8:36.07 |  3:41.68 |     38707    |    55349
        4  | 12:18.00 |  3:37.00 |     55350    |    71624
        5  | 15:55.00 |  4:42.30 |     71625    |    92804
        6  | 20:37.30 |  5:00.00 |     92805    |   115304
        7  | 25:37.30 |  5:36.40 |    115305    |   140544
        8  | 31:13.70 |  4:00.50 |    140545    |   158594
        9  | 35:14.45 |  2:36.38 |    158595    |   170332
       10  | 37:51.08 |  2:59.31 |    170333    |   183788
       11  | 40:50.39 | 10:32.00 |    183789    |   231188
       12  | 51:22.39 |  5:10.42 |    231189    |   254480
       13  | 56:33.06 |  4:43.00 |    254481    |   275705
       14  | 61:16.06 |  3:50.00 |    275706    |   292955
       15  | 65:06.06 |  5:41.50 |    292956    |   318580
Track  1
     Filename E:\EAC-CD-NEW\Uriah Heep - 2016 - It Was 40 Years Ago\01 - Free Me.wav
     Pre-gap length  0:00:02.00
     Peak level 97.1 %
     Track quality 100.0 %
     Test CRC E1E6951E
     Copy CRC E1E6951E
     Copy OK
Track  2
     Filename E:\EAC-CD-NEW\Uriah Heep - 2016 - It Was 40 Years Ago\02 - Illusion.wav
     Peak level 96.6 %
     Track quality 100.0 %
     Test CRC A0F893D7
     Copy CRC A0F893D7
     Copy OK
Track  3
     Filename E:\EAC-CD-NEW\Uriah Heep - 2016 - It Was 40 Years Ago\03 - The Hanging Tree.wav
     Peak level 97.0 %
     Track quality 100.0 %
     Test CRC 882B387D
     Copy CRC 882B387D
     Copy OK
Track  4
     Filename E:\EAC-CD-NEW\Uriah Heep - 2016 - It Was 40 Years Ago\04 - Crime Of Passion.wav
     Peak level 96.5 %
     Track quality 100.0 %
     Test CRC 80459170
     Copy CRC 80459170
     Copy OK
Track  5
     Filename E:\EAC-CD-NEW\Uriah Heep - 2016 - It Was 40 Years Ago\05 - Wise Man.wav
     Peak level 96.4 %
     Track quality 100.0 %
     Test CRC 25F61890
     Copy CRC 25F61890
     Copy OK
Track  6
     Filename E:\EAC-CD-NEW\Uriah Heep - 2016 - It Was 40 Years Ago\06 - Name Of The Game.wav
     Peak level 97.1 %
     Track quality 100.0 %
     Test CRC 9453B40D
     Copy CRC 9453B40D
     Copy OK
Track  7
     Filename E:\EAC-CD-NEW\Uriah Heep - 2016 - It Was 40 Years Ago\07 - If I Had The Time.wav
     Peak level 98.3 %
     Track quality 100.0 %
     Test CRC 1ABB58F4
     Copy CRC 1ABB58F4
     Copy OK
Track  8
     Filename E:\EAC-CD-NEW\Uriah Heep - 2016 - It Was 40 Years Ago\08 - Rain.wav
     Peak level 90.4 %
     Track quality 100.0 %
     Test CRC E8735683
     Copy CRC E8735683
     Copy OK
Track  9
     Filename E:\EAC-CD-NEW\Uriah Heep - 2016 - It Was 40 Years Ago\09 - Easy Livin'.wav
     Peak level 95.8 %
     Track quality 100.0 %
     Test CRC F65CDF55
     Copy CRC F65CDF55
     Copy OK
Track 10
     Filename E:\EAC-CD-NEW\Uriah Heep - 2016 - It Was 40 Years Ago\10 - The Wizard.wav
     Peak level 98.1 %
     Track quality 100.0 %
     Test CRC 65596728
     Copy CRC 65596728
     Copy OK
Track 11
     Filename E:\EAC-CD-NEW\Uriah Heep - 2016 - It Was 40 Years Ago\11 - July Morning.wav
     Peak level 96.7 %
     Track quality 100.0 %
     Test CRC 855CE3AD
     Copy CRC 855CE3AD
     Copy OK
Track 12
     Filename E:\EAC-CD-NEW\Uriah Heep - 2016 - It Was 40 Years Ago\12 - Look at Yourself.wav
     Peak level 97.8 %
     Track quality 100.0 %
     Test CRC 29E263EA
     Copy CRC 29E263EA
     Copy OK
Track 13
     Filename E:\EAC-CD-NEW\Uriah Heep - 2016 - It Was 40 Years Ago\13 - Lady In Black.wav
     Peak level 96.7 %
     Track quality 100.0 %
     Test CRC 8E4EB672
     Copy CRC 8E4EB672
     Copy OK
Track 14
     Filename E:\EAC-CD-NEW\Uriah Heep - 2016 - It Was 40 Years Ago\14 - Come Away Melinda.wav
     Peak level 96.5 %
     Track quality 100.0 %
     Test CRC 16D0FD5E
     Copy CRC 16D0FD5E
     Copy OK
Track 15
     Filename E:\EAC-CD-NEW\Uriah Heep - 2016 - It Was 40 Years Ago\15 - The Park.wav
     Peak level 96.6 %
     Track quality 100.0 %
     Test CRC 00BE05BD
     Copy CRC 00BE05BD
     Copy OK
No errors occurred
End of status report

Индексная карта (non-compilant .cue)

REM GENRE Rock
REM DATE 2016
REM DISCID E110970F
REM COMMENT "ExactAudioCopy v0.99pb5"
PERFORMER "Uriah Heep"
TITLE "It Was 40 Years Ago"
FILE "01 - Free Me.wav" WAVE
  TRACK 01 AUDIO
    TITLE "Free Me"
    PERFORMER "Uriah Heep"
    INDEX 01 00:00:00
FILE "02 - Illusion.wav" WAVE
  TRACK 02 AUDIO
    TITLE "Illusion"
    PERFORMER "Uriah Heep"
    INDEX 01 00:00:00
FILE "03 - The Hanging Tree.wav" WAVE
  TRACK 03 AUDIO
    TITLE "The Hanging Tree"
    PERFORMER "Uriah Heep"
    INDEX 01 00:00:00
FILE "04 - Crime Of Passion.wav" WAVE
  TRACK 04 AUDIO
    TITLE "Crime Of Passion"
    PERFORMER "Uriah Heep"
    INDEX 01 00:00:00
FILE "05 - Wise Man.wav" WAVE
  TRACK 05 AUDIO
    TITLE "Wise Man"
    PERFORMER "Uriah Heep"
    INDEX 01 00:00:00
FILE "06 - Name Of The Game.wav" WAVE
  TRACK 06 AUDIO
    TITLE "Name Of The Game"
    PERFORMER "Uriah Heep"
    INDEX 01 00:00:00
FILE "07 - If I Had The Time.wav" WAVE
  TRACK 07 AUDIO
    TITLE "If I Had The Time"
    PERFORMER "Uriah Heep"
    INDEX 01 00:00:00
FILE "08 - Rain.wav" WAVE
  TRACK 08 AUDIO
    TITLE "Rain"
    PERFORMER "Uriah Heep"
    INDEX 01 00:00:00
FILE "09 - Easy Livin'.wav" WAVE
  TRACK 09 AUDIO
    TITLE "Easy Livin'"
    PERFORMER "Uriah Heep"
    INDEX 01 00:00:00
FILE "10 - The Wizard.wav" WAVE
  TRACK 10 AUDIO
    TITLE "The Wizard"
    PERFORMER "Uriah Heep"
    INDEX 01 00:00:00
FILE "11 - July Morning.wav" WAVE
  TRACK 11 AUDIO
    TITLE "July Morning"
    PERFORMER "Uriah Heep"
    INDEX 01 00:00:00
FILE "12 - Look at Yourself.wav" WAVE
  TRACK 12 AUDIO
    TITLE "Look at Yourself"
    PERFORMER "Uriah Heep"
    INDEX 01 00:00:00
FILE "13 - Lady In Black.wav" WAVE
  TRACK 13 AUDIO
    TITLE "Lady In Black"
    PERFORMER "Uriah Heep"
    INDEX 01 00:00:00
FILE "14 - Come Away Melinda.wav" WAVE
  TRACK 14 AUDIO
    TITLE "Come Away Melinda"
    PERFORMER "Uriah Heep"
    INDEX 01 00:00:00
FILE "15 - The Park.wav" WAVE
  TRACK 15 AUDIO
    TITLE "The Park"
    PERFORMER "Uriah Heep"
    INDEX 01 00:00:00

Лог Audiochecker

AUDIOCHECKER v2.0 beta (build 457) - by Dester - opdester@freemail.hu
~~~~~~~~~~~~~~~~~~~~~~~~~~~~~~~~~~
-=== НЕ РЕДАКТИРУЙТЕ ЭТОТ ФАЙЛ! ===-
Путь: ...\Uriah Heep - It Was 40 Years Ago (2016)
01 -=- 01 - Free Me.flac -=- CDDA (100%)
02 -=- 02 - Illusion.flac -=- CDDA (100%)
03 -=- 03 - The Hanging Tree.flac -=- CDDA (99%)
04 -=- 04 - Crime Of Passion.flac -=- CDDA (100%)
05 -=- 05 - Wise Man.flac -=- CDDA (100%)
06 -=- 06 - Name Of The Game.flac -=- CDDA (100%)
07 -=- 07 - If I Had The Time.flac -=- CDDA (100%)
08 -=- 08 - Rain.flac -=- CDDA (100%)
09 -=- 09 - Easy Livin'.flac -=- CDDA (100%)
10 -=- 10 - The Wizard.flac -=- CDDA (100%)
11 -=- 11 - July Morning.flac -=- CDDA (99%)
12 -=- 12 - Look at Yourself.flac -=- CDDA (100%)
13 -=- 13 - Lady In Black.flac -=- CDDA (100%)
14 -=- 14 - Come Away Melinda.flac -=- CDDA (100%)
15 -=- 15 - The Park.flac -=- CDDA (100%)
Сводка 99,87% CDDA
55478820
-- --
[Профиль] [ЛС]
Показать сообщения:    
Ответить на тему

Текущее время: 11-Дек 08:03

Часовой пояс: UTC + 4



Вы не можете начинать темы
Вы не можете отвечать на сообщения
Вы не можете редактировать свои сообщения
Вы не можете удалять свои сообщения
Вы не можете голосовать в опросах
Вы не можете прикреплять файлы к сообщениям
Вы не можете скачивать файлы
Анализ веб сайтов Яндекс.Метрика Рейтинг@Mail.ru