Хижина в лесу: Новая глава / Demon Hole (Джош Крук) [2017, ужасы, комедия, WEB-DLRip-AVC от ivanes20031987 | iTunes]

Ответить на тему
Статистика раздачи [Обновить пиров]
Размер:  1,36 GB   |    Зарегистрирован:  10 дней   |    .torrent скачан:  2 раза
Сидов:  1415  [  0 KB/s  ]   Личеров:  286  [  0 KB/s  ]   Подробная статистика пиров
 
   
 
 
Автор Сообщение

Skorp10n ®

Онлайн

 Активный раздающий 1 Активный раздающий 2
 Активный релизер 1000 Активный релизер 1500 Активный релизер 2000 Активный релизер 250 Активный релизер 3000 Активный релизер 500 Активный релизер 5000 Активный релизер Фильмов (300) Активный Форумчанин 1 Активный Форумчанин 2 Активный Форумчанин 3 Активный Форумчанин 4 Друг трекера Карма 1000 Карма 1500 Карма 500 Меценат Ни дня без новостей Орденосец 1 степени Орденосец 2 степени Орденосец 3 степени Почетный орденосец Почетный репортер С Новым 2016 Годом! С Новым 2017 Годом! С Новым 2018 Годом! Супер Мега Контер Квейк ТОП-10

Пол: Мужской

Стаж: 2 года 11 месяцев

Наличие запрета:

Сообщений: 5789

Откуда: Казахстан, Караганда

Отдача: не определено

Загрузка: не определено

Нажми

Создавать темы 11-Июл-2018 16:46

[Цитировать]

Информация о фильме- Название: Хижина в лесу: Новая глава
Оригинальное название: Demon Hole
Год выхода: 2017
Жанр: ужасы, комедия
Режиссер: Джош Крук
В ролях: Саманта Скаффиди, Пэрис Кэмпбелл, Laura Barbiea, Саммер Биллс, Адриан Дензель, Стив Липман, Danielle Brigner, James S. Euto, Ralph Scott-О фильме:-Разработка полезных ископаемых на священной земле индейцев пробудила древнего демона. Есть только два выхода из леса: поддаться демону или умереть.- -Страна: США
Продолжительность: 01:17:24
Перевод: Профессиональный (многоголосый закадровый) iTunes-Файл-Кодек: H.264
Качество: WEB-DLRip-AVC
Видео: MPEG-4 AVC, 948x396 (2.40:1), 24.000 fps, ~2088 kbps avg, 0.232 bit/pixel
Звук: 48 kHz, AC3 Dolby Digital, 3/2 (L,C,R,l,r) + LFE ch, ~384 kbps avg
Субтитры: Нет-Семпл-

MediaInfo

-Complete name : D:РаздачаХижина в лесу Новая глава (2017) WEB-DLRip-AVC_ivanes20031987.mkv
Format : Matroska
Format version : Version 2
File size : 1.36 GiB
Duration : 1 h 17 min
Overall bit rate : 2 522 kb/s
Movie name : Хижина в лесу Новая глава (2017) WEB-DLRip-AVC_ivanes20031987
Encoded date : UTC 2018-07-04 16:51:39
Writing application : mkvmerge v4.4.0 ('Die Wiederkehr') сборка от Jan 3 2011 21:40:45
Writing library : libebml v1.0.0 + libmatroska v1.0.0
Cover : Yes
Attachments : cover.jpg
Video
ID : 1
Format : AVC
Format/Info : Advanced Video Codec
Format profile : [email protected]
Format settings, CABAC : Yes
Format settings, RefFrames : 14 frames
Codec ID : V_MPEG4/ISO/AVC
Duration : 1 h 17 min
Bit rate : 2 088 kb/s
Width : 948 pixels
Height : 396 pixels
Display aspect ratio : 2.40:1
Frame rate mode : Constant
Frame rate : 24.000 FPS
Color space : YUV
Chroma subsampling : 4:2:0
Bit depth : 8 bits
Scan type : Progressive
Bits/(Pixel*Frame) : 0.232
Stream size : 1.13 GiB (83%)
Title : Rip by ivanes20031987
Writing library : x264 core 155 r2901 7d0ff22
Encoding settings : cabac=1 / ref=14 / deblock=1:-3:-3 / analyse=0x3:0x113 / me=umh / subme=10 / psy=1 / psy_rd=1.00:0.00 / mixed_ref=1 / me_range=32 / chroma_me=1 / trellis=2 / 8x8dct=1 / cqm=0 / deadzone=21,11 / fast_pskip=0 / chroma_qp_offset=-2 / threads=12 / lookahead_threads=3 / sliced_threads=0 / nr=0 / decimate=0 / interlaced=0 / bluray_compat=0 / constrained_intra=0 / bframes=14 / b_pyramid=2 / b_adapt=2 / b_bias=0 / direct=1 / weightb=1 / open_gop=0 / weightp=2 / keyint=240 / keyint_min=24 / scenecut=40 / intra_refresh=0 / rc_lookahead=60 / rc=crf / mbtree=0 / crf=15.8 / qcomp=0.60 / qpmin=0 / qpmax=69 / qpstep=4 / vbv_maxrate=50000 / vbv_bufsize=62500 / crf_max=0.0 / nal_hrd=none / filler=0 / ip_ratio=1.40 / pb_ratio=1.30 / aq=1:1.00
Default : Yes
Forced : No
Audio
ID : 2
Format : AC-3
Format/Info : Audio Coding 3
Format settings, Endianness : Big
Codec ID : A_AC3
Duration : 1 h 17 min
Bit rate mode : Constant
Bit rate : 384 kb/s
Channel(s) : 6 channels
Channel positions : Front: L C R, Side: L R, LFE
Sampling rate : 48.0 kHz
Frame rate : 31.250 FPS (1536 SPF)
Bit depth : 16 bits
Compression mode : Lossy
Stream size : 213 MiB (15%)
Title : iTunes
Language : Russian
Service kind : Complete Main
Default : Yes
Forced : No-
-

Скриншоты

--
-
[free-tor.com].t16163.torrent 
Торрент: Зарегистрирован [ 2018-07-11 16:46 ] · 4AD3E197A1401CAE74B1D441BB0356687089035A

Скачать .torrent

Скачать .torrent

15 KB

Статус: проверено
.torrent скачан: 2 раз
Размер: 1,36 GB
Правила
Похожие темы
[Профиль] [ЛС]
Показать сообщения:    
Ответить на тему

Текущее время: 21-Июл 17:44

Часовой пояс: UTC + 4



Вы не можете начинать темы
Вы не можете отвечать на сообщения
Вы не можете редактировать свои сообщения
Вы не можете удалять свои сообщения
Вы не можете голосовать в опросах
Вы не можете прикреплять файлы к сообщениям
Вы можете скачивать файлы
Анализ веб сайтов Яндекс.Метрика Рейтинг@Mail.ru