2307: Операция «Андроид» / 2307: Winter's Dream (Джои Кертис) [2016, фантастика, BDRip-AVC | iTunes]

Ответить на тему
Статистика раздачи [Обновить пиров]
Размер:  2,16 GB   |    Зарегистрирован:  10 дней   |    .torrent скачан:  7 раз
Сидов:  295  [  0 KB/s  ]   Личеров:  2  [  0 KB/s  ]   Подробная статистика пиров
 
   
 
 
Автор Сообщение

Skorp10n ®

Онлайн

 Активный раздающий 1 Активный раздающий 2
 Активный релизер 1000 Активный релизер 1500 Активный релизер 2000 Активный релизер 250 Активный релизер 3000 Активный релизер 500 Активный релизер 5000 Активный релизер Фильмов (300) Активный Форумчанин 1 Активный Форумчанин 2 Активный Форумчанин 3 Активный Форумчанин 4 Друг трекера Карма 1000 Карма 1500 Карма 500 Меценат Ни дня без новостей Орденосец 1 степени Орденосец 2 степени Орденосец 3 степени Почетный орденосец Почетный репортер С Новым 2016 Годом! С Новым 2017 Годом! С Новым 2018 Годом! Супер Мега Контер Квейк ТОП-10

Пол: Мужской

Стаж: 2 года 11 месяцев

Наличие запрета:

Сообщений: 5789

Откуда: Казахстан, Караганда

Отдача: не определено

Загрузка: не определено

Нажми

Создавать темы 11-Июл-2018 16:57

[Цитировать]

Информация о фильме- Название: 2307: Операция «Андроид»
Оригинальное название: 2307: Winter's Dream
Год выхода: 2016
Жанр: Фантастика
Страна: США
Перевод: Профессиональный (многоголосый, закадровый) | iTunes
Продолжительность: 01:41:32
Режиссер: Джои Кертис
В ролях: Амар Сидху, Брэнден Колес, Ариэль Холмс, Келси Уотсон, Энн-Соленн Хатте, Тимоти Ли ДеПрайст, Сторми Хенли, Харвуд Гордон, Фернандо Аргосино, Сирван Ассад и др.-О фильме:-Недалёкое будущее, 2307 год. Солдата отправляют на миссию, целью которой является отслеживание и устранение лидера восстания гуманоидов, которых люди когда-то создали в качестве рабов.- -Файл-Формат: MKV
Качество: BDRip
Видео: MPEG-4 AVC, 1024x428, 2020 kbps, 23,976 fps
Звук#1: русский, AC3, 6 ch, 48 kHz, 384 kbps | iTunes
Звук#2: английский, AC3, 6 ch, 48 kHz, 640 kbps | оригинал
Субтитры: нет-

MI

-General
Уникальный идентификатор : 196044275668084624235523966322329680496 (0x937CC10C4550DBB8BACBA75257867A70)
Полное имя : F:Torrent2307.Winters.Dream.2016.BDRip.mkv
Формат : Matroska
Версия формата : Version 4 / Version 2
Размер файла : 2.16 GiB
Продолжительность : 1 h 41 min
Общий поток : 3 044 kb/s
Название фильма : 2307.Winters.Dream.2016.1080p.BluRay.REMUX.AVC.DTS-HD.MA.5.1-FGT
Дата кодирования : UTC 2018-07-01 11:40:32
Программа кодирования : mkvmerge v9.5.0 ('Quiet Fire') 64bit
Библиотека кодирования : libebml v1.3.4 + libmatroska v1.4.5
Video
Идентификатор : 1
Формат : AVC
Формат/Информация : Advanced Video Codec
Профиль формата : [email protected]
Настройки формата : CABAC / 10 Ref Frames
Параметр CABAC формата : Yes
Параметр RefFrames формата : 10 frames
Идентификатор кодека : V_MPEG4/ISO/AVC
Продолжительность : 1 h 41 min
Битрейт : 2 020 kb/s
Ширина : 1 024 pixels
Высота : 428 pixels
Соотношение сторон : 2.40:1
Режим частоты кадров : Constant
Частота кадров : 23.976 (24000/1001) FPS
Цветовое пространство : YUV
Субдискретизация насыщенности : 4:2:0
Битовая глубина : 8 bits
Тип развёртки : Progressive
Бит/(Пиксели*Кадры) : 0.192
Размер потока : 1.43 GiB (66%)
Библиотека кодирования : x264 core 155 r2901M 7d0ff22
Настройки программы : cabac=1 / ref=10 / deblock=1:-3:-3 / analyse=0x3:0x133 / me=umh / subme=11 / psy=1 / psy_rd=1.00:0.00 / mixed_ref=1 / me_range=48 / chroma_me=1 / trellis=2 / 8x8dct=1 / cqm=0 / deadzone=21,11 / fast_pskip=0 / chroma_qp_offset=-2 / threads=5 / lookahead_threads=1 / sliced_threads=0 / nr=0 / decimate=0 / interlaced=0 / bluray_compat=0 / constrained_intra=0 / bframes=10 / b_pyramid=2 / b_adapt=2 / b_bias=0 / direct=3 / weightb=1 / open_gop=0 / weightp=2 / keyint=240 / keyint_min=24 / scenecut=40 / intra_refresh=0 / rc_lookahead=120 / rc=2pass / mbtree=0 / bitrate=2020 / ratetol=1.0 / qcomp=0.70 / qpmin=0 / qpmax=69 / qpstep=4 / cplxblur=20.0 / qblur=0.5 / vbv_maxrate=62500 / vbv_bufsize=78125 / nal_hrd=none / filler=0 / ip_ratio=1.40 / pb_ratio=1.30 / aq=1:1.00
Язык : English
Default : Yes
Forced : No
Цветовой диапазон : Limited
Основные цвета : BT.709
Характеристики трансфера : BT.709
Коэффициенты матрицы : BT.709
Audio #1
Идентификатор : 2
Формат : AC-3
Формат/Информация : Audio Coding 3
Идентификатор кодека : A_AC3
Продолжительность : 1 h 41 min
Вид битрейта : Constant
Битрейт : 384 kb/s
Каналы : 6 channels
Расположение каналов : Front: L C R, Side: L R, LFE
Частота : 48.0 kHz
Частота кадров : 31.250 FPS (1536 SPF)
Битовая глубина : 16 bits
Метод сжатия : Lossy
Размер потока : 279 MiB (13%)
Язык : Russian
Default : Yes
Forced : No
Audio #2
Идентификатор : 3
Формат : AC-3
Формат/Информация : Audio Coding 3
Идентификатор кодека : A_AC3
Продолжительность : 1 h 41 min
Вид битрейта : Constant
Битрейт : 640 kb/s
Каналы : 6 channels
Расположение каналов : Front: L C R, Side: L R, LFE
Частота : 48.0 kHz
Частота кадров : 31.250 FPS (1536 SPF)
Битовая глубина : 16 bits
Метод сжатия : Lossy
Размер потока : 465 MiB (21%)
Язык : English
Default : No
Forced : No-
-

Скриншоты

--
-
[free-tor.com].t16167.torrent 
Торрент: Зарегистрирован [ 2018-07-11 16:57 ] · C8B4A725ECE5418B0A91C4D869B6845B45D10BF3

Скачать .torrent

Скачать .torrent

12 KB

Статус: проверено
.torrent скачан: 7 раз
Размер: 2,16 GB
Правила
Похожие темы
[Профиль] [ЛС]
Показать сообщения:    
Ответить на тему

Текущее время: 21-Июл 17:45

Часовой пояс: UTC + 4



Вы не можете начинать темы
Вы не можете отвечать на сообщения
Вы не можете редактировать свои сообщения
Вы не можете удалять свои сообщения
Вы не можете голосовать в опросах
Вы не можете прикреплять файлы к сообщениям
Вы можете скачивать файлы
Анализ веб сайтов Яндекс.Метрика Рейтинг@Mail.ru