От семьи не убежишь / La ch'tite famille (Дани Бун) [2018, комедия, BDRip 720p от ExKinoRay | iTunes]

Ответить на тему
Статистика раздачи [Обновить пиров]
Размер:  5,52 GB   |    Зарегистрирован:  10 дней   |    .torrent скачан:  3 раза
Сидов:  528  [  0 KB/s  ]   Личеров:  34  [  0 KB/s  ]   Подробная статистика пиров
 
   
 
 
Автор Сообщение

Skorp10n ®

Онлайн

 Активный раздающий 1 Активный раздающий 2
 Активный релизер 1000 Активный релизер 1500 Активный релизер 2000 Активный релизер 250 Активный релизер 3000 Активный релизер 500 Активный релизер 5000 Активный релизер Фильмов (300) Активный Форумчанин 1 Активный Форумчанин 2 Активный Форумчанин 3 Активный Форумчанин 4 Друг трекера Карма 1000 Карма 1500 Карма 500 Меценат Ни дня без новостей Орденосец 1 степени Орденосец 2 степени Орденосец 3 степени Почетный орденосец Почетный репортер С Новым 2016 Годом! С Новым 2017 Годом! С Новым 2018 Годом! Супер Мега Контер Квейк ТОП-10

Пол: Мужской

Стаж: 2 года 11 месяцев

Наличие запрета:

Сообщений: 5789

Откуда: Казахстан, Караганда

Отдача: не определено

Загрузка: не определено

Нажми

Создавать темы 11-Июл-2018 17:12

[Цитировать]

Информация о фильме- Название: От семьи не убежишь
Оригинальное название: La ch'tite famille
Год выхода: 2018
Жанр: Комедия
Режиссер: Дани Бун
В ролях: Дани Бун, Лин Рено, Лоранс Арне, Валери Боннетон, Ги Леклюиз, Франсуа Берлеан, Пьер Ришар, Жюлиан Лепоро, Стефан Пезера, Ян Туаль- -О фильме: Молодые и успешные парижские дизайнеры Валентин и Констанция готовятся заключить многомиллионный контракт, но в самый неподходящий момент на выставку приезжает вся семейка Валентина, которая проливает свет на его прошлое и расстраивает все планы.-Страна: Франция,
Студия: Les Productions du Ch'timi, Pathé
Продолжительность: 01:46:28
Перевод: Дублированный | iTunes-Качество: BDRip 720p
Видео: MPEG-4 AVC, 1280x536, 6400 Кbit/s, 23.976 fps
Звук:
Аудио #01: 48 kHz, AC3, 5.1, 384 Kbps | iTunes | RUS |
Аудио #02: 48 kHz, AC3, 5.1, 640 Kbps | Оригинал | FRE | -

Скриншоты

--
-

MI

-General
Unique ID : 236331266142880592813212230621144118831 (0xB1CBBF08A9FC942D95B631742A55762F)
Complete name : D:Video111La.Chtite.Famille.2018.BDRip.720p.ExKinoRay.mkv
Format : Matroska
Format version : Version 4 / Version 2
File size : 5.52 GiB
Duration : 1 h 46 min
Overall bit rate : 7 424 kb/s
Movie name : La Chtite Famille 2018 from ExKinoRay
Encoded date : UTC 2018-07-03 20:42:06
Writing application : mkvmerge v7.3.0 ('Nouages') 64bit built on Oct 22 2014 18:53:34
Writing library : libebml v1.3.0 + libmatroska v1.4.1
Video
ID : 1
Format : AVC
Format/Info : Advanced Video Codec
Format profile : [email protected]
Format settings : CABAC / 12 Ref Frames
Format settings, CABAC : Yes
Format settings, ReFrames : 12 frames
Codec ID : V_MPEG4/ISO/AVC
Duration : 1 h 46 min
Bit rate : 6 400 kb/s
Width : 1 280 pixels
Height : 536 pixels
Display aspect ratio : 2.40:1
Frame rate mode : Constant
Frame rate : 23.976 (24000/1001) FPS
Color space : YUV
Chroma subsampling : 4:2:0
Bit depth : 8 bits
Scan type : Progressive
Bits/(Pixel*Frame) : 0.389
Stream size : 4.76 GiB (86%)
Writing library : x264 core 148 r2705 3f5ed56
Encoding settings : cabac=1 / ref=12 / deblock=1:-2:-2 / analyse=0x3:0x133 / me=umh / subme=10 / psy=1 / psy_rd=1.05:0.05 / mixed_ref=1 / me_range=32 / chroma_me=1 / trellis=2 / 8x8dct=1 / cqm=0 / deadzone=21,11 / fast_pskip=0 / chroma_qp_offset=-3 / threads=12 / lookahead_threads=2 / sliced_threads=0 / nr=0 / decimate=0 / interlaced=0 / bluray_compat=0 / constrained_intra=0 / bframes=8 / b_pyramid=2 / b_adapt=2 / b_bias=0 / direct=3 / weightb=1 / open_gop=0 / weightp=2 / keyint=240 / keyint_min=23 / scenecut=40 / intra_refresh=0 / rc_lookahead=50 / rc=2pass / mbtree=0 / bitrate=6400 / ratetol=1.0 / qcomp=0.60 / qpmin=0 / qpmax=51 / qpstep=4 / cplxblur=20.0 / qblur=0.5 / vbv_maxrate=50000 / vbv_bufsize=62500 / nal_hrd=none / filler=0 / ip_ratio=1.40 / pb_ratio=1.30 / aq=3:0.80
Language : English
Default : Yes
Forced : No
Audio #1
ID : 2
Format : AC-3
Format/Info : Audio Coding 3
Codec ID : A_AC3
Duration : 1 h 46 min
Bit rate mode : Constant
Bit rate : 384 kb/s
Channel(s) : 6 channels
Channel positions : Front: L C R, Side: L R, LFE
Sampling rate : 48.0 kHz
Frame rate : 31.250 FPS (1536 SPF)
Bit depth : 16 bits
Compression mode : Lossy
Stream size : 292 MiB (5%)
Title : iTunes
Language : Russian
Service kind : Complete Main
Default : Yes
Forced : Yes
Audio #2
ID : 3
Format : AC-3
Format/Info : Audio Coding 3
Codec ID : A_AC3
Duration : 1 h 46 min
Bit rate mode : Constant
Bit rate : 640 kb/s
Channel(s) : 6 channels
Channel positions : Front: L C R, Side: L R, LFE
Sampling rate : 48.0 kHz
Frame rate : 31.250 FPS (1536 SPF)
Bit depth : 16 bits
Compression mode : Lossy
Stream size : 487 MiB (9%)
Title : Original
Language : French
Service kind : Complete Main
Default : No
Forced : No
Menu
00:00:00.000 : en:Chapter 1
00:07:37.248 : en:Chapter 2
00:15:11.285 : en:Chapter 3
00:25:04.461 : en:Chapter 4
00:33:17.870 : en:Chapter 5
00:41:44.627 : en:Chapter 6
00:51:26.249 : en:Chapter 7
01:00:48.811 : en:Chapter 8
01:10:42.905 : en:Chapter 9
01:20:07.928 : en:Chapter 10
01:30:17.620 : en:Chapter 11
01:41:55.150 : en:Chapter 12-
-Релиз от: Автор релиза: -
[free-tor.com].t16172.torrent 
Торрент: Зарегистрирован [ 2018-07-11 17:12 ] · 00C1A890BCA60173C63E97087050021886D3AA3A

Скачать .torrent

Скачать .torrent

8 KB

Статус: проверено
.torrent скачан: 3 раз
Размер: 5,52 GB
Правила
Похожие темы
[Профиль] [ЛС]
Показать сообщения:    
Ответить на тему

Текущее время: 21-Июл 17:46

Часовой пояс: UTC + 4



Вы не можете начинать темы
Вы не можете отвечать на сообщения
Вы не можете редактировать свои сообщения
Вы не можете удалять свои сообщения
Вы не можете голосовать в опросах
Вы не можете прикреплять файлы к сообщениям
Вы можете скачивать файлы
Анализ веб сайтов Яндекс.Метрика Рейтинг@Mail.ru