Жажда смерти / Death Wish (Элай Рот) [2018, боевик, триллер, криминал, BDRemux 2160p от ExKinoRay | 4K | HDR | ITA Transfer | iTunes]

Ответить на тему
Статистика раздачи [Обновить пиров]
Размер:  56,71 GB   |    Зарегистрирован:  10 дней   |    .torrent скачан:  2 раза
Сидов:  122  [  0 KB/s  ]   Личеров:  56  [  0 KB/s  ]   Подробная статистика пиров
 
   
 
 
Автор Сообщение

Skorp10n ®

Онлайн

 Активный раздающий 1 Активный раздающий 2
 Активный релизер 1000 Активный релизер 1500 Активный релизер 2000 Активный релизер 250 Активный релизер 3000 Активный релизер 500 Активный релизер 5000 Активный релизер Фильмов (300) Активный Форумчанин 1 Активный Форумчанин 2 Активный Форумчанин 3 Активный Форумчанин 4 Друг трекера Карма 1000 Карма 1500 Карма 500 Меценат Ни дня без новостей Орденосец 1 степени Орденосец 2 степени Орденосец 3 степени Почетный орденосец Почетный репортер С Новым 2016 Годом! С Новым 2017 Годом! С Новым 2018 Годом! Супер Мега Контер Квейк ТОП-10

Пол: Мужской

Стаж: 2 года 11 месяцев

Наличие запрета:

Сообщений: 5789

Откуда: Казахстан, Караганда

Отдача: не определено

Загрузка: не определено

Нажми

Создавать темы 11-Июл-2018 17:34

[Цитировать]

Информация о фильме- Название: Жажда смерти
Оригинальное название: Death Wish
Год выхода: 2018
Жанр: Боевик, триллер, криминал
Режиссер: Элай Рот
В ролях: Брюс Уиллис, Винсент Д`Онофрио, Элизабет Шу, Камила Морроне, Дин Норрис, Бо Напп, Кимберли Элиз, Лен Кариу, Джек Кеси, Ронни Джин Блевинс- -О фильме: Пол Керси - хирург, привыкший вытаскивать людей с того света после криминальных разборок. Но после того, как его жена и дочь становятся жертвами уличной банды, а полиция бездействует, он берет карающий меч правосудия в свои руки. Видео изобретательных убийств преступников покоряют интернет-топы, а среди жителей города расходятся слухи о неуловимом народном мстителе, которому теперь принадлежит весь город. Он мстит бодро, весело и со вкусом.-Страна: США,
Студия: Metro-Goldwyn-Mayer (MGM), Paramount Pictures
Продолжительность: 01:46:03
Перевод: Дублированный | iTunes-Качество: BDRemux 2160p
Видео: MPEG-H HEVC HDR Video, 3840x2160, 73.0 Mbit/s, 24.000 fps
Звук:
Аудио #01: 48 kHz, AC3, 5.1, 384 Kbps | iTunes | RUS |
Аудио #02: 48 kHz, DTS-HD MA, 5.1, 1920 Kbps | Оригинал | ENG | -

Скриншоты

--
-

MI

-General
Unique ID : 248695360249244258655666559928298326867 (0xBB18FBF02AF1C1578DFB8E97E5D74B53)
Complete name : D:Video111Death.Wish.2018.D.BDREMUX.2160p.4K.UHD.HEVC.HDR.ExKinoRay.mkv
Format : Matroska
Format version : Version 4 / Version 2
File size : 56.7 GiB
Duration : 1 h 47 min
Overall bit rate : 75.3 Mb/s
Movie name : Death Wish 2018 from ExKinoRay
Encoded date : UTC 2018-07-09 01:58:28
Writing application : mkvmerge v23.0.0 ('The Bride Said No') 64-bit
Writing library : libebml v1.3.6 + libmatroska v1.4.9
Video
ID : 1
Format : HEVC
Format/Info : High Efficiency Video Coding
Commercial name : HDR10
Format profile : Main [email protected]@High
Codec ID : V_MPEGH/ISO/HEVC
Duration : 1 h 47 min
Bit rate : 73.0 Mb/s
Width : 3 840 pixels
Height : 2 160 pixels
Display aspect ratio : 16:9
Frame rate mode : Constant
Frame rate : 24.000 FPS
Standard : Component
Color space : YUV
Chroma subsampling : 4:2:0 (Type 2)
Bit depth : 10 bits
Bits/(Pixel*Frame) : 0.367
Stream size : 55.0 GiB (97%)
Language : English
Default : Yes
Forced : No
Color range : Limited
Color primaries : BT.2020
Transfer characteristics : PQ
Matrix coefficients : BT.2020 non-constant
Mastering display color pri : Display P3
Mastering display luminance : min: 0.0000 cd/m2, max: 1000 cd/m2
Maximum Content Light Level : 1000 cd/m2
Maximum Frame-Average Light : 13 cd/m2
Audio #1
ID : 2
Format : AC-3
Format/Info : Audio Coding 3
Codec ID : A_AC3
Duration : 1 h 47 min
Bit rate mode : Constant
Bit rate : 384 kb/s
Channel(s) : 6 channels
Channel positions : Front: L C R, Side: L R, LFE
Sampling rate : 48.0 kHz
Frame rate : 31.250 FPS (1536 SPF)
Bit depth : 16 bits
Compression mode : Lossy
Stream size : 295 MiB (1%)
Title : iTunes
Language : Russian
Service kind : Complete Main
Default : Yes
Forced : Yes
Audio #2
ID : 3
Format : DTS
Format/Info : Digital Theater Systems
Format profile : MA / Core
Codec ID : A_DTS
Duration : 1 h 47 min
Bit rate mode : Variable / Constant
Bit rate : 1 920 kb/s / 1 509 kb/s
Channel(s) : 6 channels
Channel positions : Front: L C R, Side: L R, LFE
Sampling rate : 48.0 kHz
Frame rate : 93.750 FPS (512 SPF)
Bit depth : 16 bits
Compression mode : Lossless / Lossy
Stream size : 1.47 GiB (3%)
Title : Original
Language : English
Default : No
Forced : No
Menu
00:00:00.000 : en:Chapter 1
00:10:19.708 : en:Chapter 2
00:17:42.750 : en:Chapter 3
00:26:36.958 : en:Chapter 4
00:35:56.375 : en:Chapter 5
00:44:32.041 : en:Chapter 6
00:52:49.416 : en:Chapter 7
01:01:22.000 : en:Chapter 8
01:12:10.916 : en:Chapter 9
01:20:04.666 : en:Chapter 10
01:28:57.250 : en:Chapter 11
01:39:45.958 : en:Chapter 12-
-Релиз от: Автор релиза: -
[free-tor.com].t16181.torrent 
Торрент: Зарегистрирован [ 2018-07-11 17:34 ] · AE6EE956051C3E0325096E0EDD7052E79C2503D0

Скачать .torrent

Скачать .torrent

72 KB

Статус: проверено
.torrent скачан: 2 раз
Размер: 56,71 GB
Правила
Похожие темы
[Профиль] [ЛС]
Показать сообщения:    
Ответить на тему

Текущее время: 21-Июл 17:42

Часовой пояс: UTC + 4



Вы не можете начинать темы
Вы не можете отвечать на сообщения
Вы не можете редактировать свои сообщения
Вы не можете удалять свои сообщения
Вы не можете голосовать в опросах
Вы не можете прикреплять файлы к сообщениям
Вы можете скачивать файлы
Анализ веб сайтов Яндекс.Метрика Рейтинг@Mail.ru