Привидение / Every Day (Майкл Сакси) [2018, фэнтези, драма, мелодрама, BDRemux 1080p от ExKinoRay | iTunes]

Ответить на тему
Статистика раздачи [Обновить пиров]
Размер:  22,83 GB   |    Зарегистрирован:  10 дней   |    .torrent скачан:  2 раза
Сидов:  84  [  0 KB/s  ]   Личеров:  10  [  0 KB/s  ]   Подробная статистика пиров
 
   
 
 
Автор Сообщение

Skorp10n ®

Онлайн

 Активный раздающий 1 Активный раздающий 2
 Активный релизер 1000 Активный релизер 1500 Активный релизер 2000 Активный релизер 250 Активный релизер 3000 Активный релизер 500 Активный релизер 5000 Активный релизер Фильмов (300) Активный Форумчанин 1 Активный Форумчанин 2 Активный Форумчанин 3 Активный Форумчанин 4 Друг трекера Карма 1000 Карма 1500 Карма 500 Меценат Ни дня без новостей Орденосец 1 степени Орденосец 2 степени Орденосец 3 степени Почетный орденосец Почетный репортер С Новым 2016 Годом! С Новым 2017 Годом! С Новым 2018 Годом! Супер Мега Контер Квейк ТОП-10

Пол: Мужской

Стаж: 2 года 11 месяцев

Наличие запрета:

Сообщений: 5789

Откуда: Казахстан, Караганда

Отдача: не определено

Загрузка: не определено

Нажми

Создавать темы 11-Июл-2018 17:45

[Цитировать]

Информация о фильме- Название: Привидение
Оригинальное название: Every Day
Год выхода: 2018
Жанр: Фэнтези, драма, мелодрама
Режиссер: Майкл Сакси
В ролях: Энгаури Райс, Джастис Смит, Дженни Росс, Лукас Джейд Зуманн, Кэти Дуглас, Джейкоб Баталон, Иэн Александр, Шон Джонс, Колин Форд- -О фильме: Каждый день он просыпается в новом теле. Его утро - это новый дом, новая семья, новые друзья. Он - бестелесный дух, который видит мир глазами других и проживает короткие моменты чужих жизней. Но однажды он встречает Рианнон, и каждый день превращается в попытку вернуться к этой девушке, ставшей для него той самой единственной. Теперь им нужно найти способ остаться вместе.-Страна: США
Студия: FilmWave
Продолжительность: 01:37:24
Перевод: Дублированный | iTunes-Качество: BDRemux 1080p
Видео: MPEG-4 AVC, 1920x1080, 29.7 Mbit/s, 23.976 fps
Звук:
Аудио #01: 48 kHz, AC3, 5.1, 384 Kbps | iTunes | RUS |
Аудио #02: 48 kHz, DTS-HD MA, 5.1, 3349 Kbps | Оригинал | ENG |
Субтитры: Английские-

Скриншоты

--
-

MI

-General
Unique ID : 276141128883149694142822542251549619650 (0xCFBED8CE646853B1C4D1DF27289575C2)
Complete name : E:VideoEvery.Day.2018.BDREMUX.1080p.ExKinoRay.mkv
Format : Matroska
Format version : Version 4 / Version 2
File size : 22.8 GiB
Duration : 1 h 37 min
Overall bit rate mode : Variable
Overall bit rate : 33.5 Mb/s
Movie name : Every Day 2018 from ExKinoRay
Encoded date : UTC 2018-07-04 19:42:45
Writing application : mkvmerge v23.0.0 ('The Bride Said No') 64-bit
Writing library : libebml v1.3.6 + libmatroska v1.4.9
Video
ID : 1
Format : AVC
Format/Info : Advanced Video Codec
Format profile : [email protected]
Format settings : CABAC / 4 Ref Frames
Format settings, CABAC : Yes
Format settings, ReFrames : 4 frames
Format settings, GOP : M=3, N=24
Codec ID : V_MPEG4/ISO/AVC
Duration : 1 h 37 min
Bit rate mode : Variable
Bit rate : 29.7 Mb/s
Maximum bit rate : 35.0 Mb/s
Width : 1 920 pixels
Height : 1 080 pixels
Display aspect ratio : 16:9
Frame rate mode : Constant
Frame rate : 23.976 (24000/1001) FPS
Standard : NTSC
Color space : YUV
Chroma subsampling : 4:2:0
Bit depth : 8 bits
Scan type : Progressive
Bits/(Pixel*Frame) : 0.598
Stream size : 20.3 GiB (89%)
Language : English
Default : Yes
Forced : No
Color range : Limited
Color primaries : BT.709
Transfer characteristics : BT.709
Matrix coefficients : BT.709
Audio #1
ID : 2
Format : AC-3
Format/Info : Audio Coding 3
Codec ID : A_AC3
Duration : 1 h 37 min
Bit rate mode : Constant
Bit rate : 384 kb/s
Channel(s) : 6 channels
Channel positions : Front: L C R, Side: L R, LFE
Sampling rate : 48.0 kHz
Frame rate : 31.250 FPS (1536 SPF)
Bit depth : 16 bits
Compression mode : Lossy
Stream size : 268 MiB (1%)
Title : iTunes
Language : Russian
Service kind : Complete Main
Default : Yes
Forced : Yes
Audio #2
ID : 3
Format : DTS
Format/Info : Digital Theater Systems
Format profile : MA / Core
Codec ID : A_DTS
Duration : 1 h 37 min
Bit rate mode : Variable / Constant
Bit rate : 3 349 kb/s / 1 509 kb/s
Channel(s) : 6 channels
Channel positions : Front: L C R, Side: L R, LFE
Sampling rate : 48.0 kHz
Frame rate : 93.750 FPS (512 SPF)
Bit depth : 24 bits
Compression mode : Lossless / Lossy
Stream size : 2.28 GiB (10%)
Title : Original
Language : English
Default : No
Forced : No
Text #1
ID : 4
Format : UTF-8
Codec ID : S_TEXT/UTF8
Codec ID/Info : UTF-8 Plain Text
Duration : 1 h 29 min
Bit rate : 57 b/s
Count of elements : 1195
Stream size : 37.8 KiB (0%)
Title : Full
Language : English
Default : No
Forced : No
Text #2
ID : 5
Format : UTF-8
Codec ID : S_TEXT/UTF8
Codec ID/Info : UTF-8 Plain Text
Duration : 1 h 29 min
Bit rate : 59 b/s
Count of elements : 1226
Stream size : 39.3 KiB (0%)
Title : SDH
Language : English
Default : No
Forced : No
Menu
00:00:00.000 : en:Chapter 1
00:06:17.794 : en:Chapter 2
00:13:16.421 : en:Chapter 3
00:18:18.180 : en:Chapter 4
00:23:56.185 : en:Chapter 5
00:29:25.347 : en:Chapter 6
00:37:50.143 : en:Chapter 7
00:41:46.212 : en:Chapter 8
00:49:05.317 : en:Chapter 9
00:55:00.756 : en:Chapter 10
01:00:40.846 : en:Chapter 11
01:06:54.677 : en:Chapter 12
01:13:31.699 : en:Chapter 13
01:20:35.205 : en:Chapter 14
01:26:06.870 : en:Chapter 15
01:32:08.732 : en:Chapter 16-
-Релиз от: Автор релиза: -
[free-tor.com].t16184.torrent 
Торрент: Зарегистрирован [ 2018-07-11 17:45 ] · 6C2C19F2387A5991B0ACCF9615E39430011A74A3

Скачать .torrent

Скачать .torrent

30 KB

Статус: проверено
.torrent скачан: 2 раз
Размер: 22,83 GB
Правила
Похожие темы
[Профиль] [ЛС]
Показать сообщения:    
Ответить на тему

Текущее время: 21-Июл 17:49

Часовой пояс: UTC + 4



Вы не можете начинать темы
Вы не можете отвечать на сообщения
Вы не можете редактировать свои сообщения
Вы не можете удалять свои сообщения
Вы не можете голосовать в опросах
Вы не можете прикреплять файлы к сообщениям
Вы можете скачивать файлы
Анализ веб сайтов Яндекс.Метрика Рейтинг@Mail.ru