Хищник 2 / Predator 2 (Стивен Хопкинс) [1990, фантастика, боевик, триллер, BDRip 1080p | D, P, P2, A | REMASTERED]

Ответить на тему
Статистика раздачи [Обновить пиров]
Размер:  13,56 GB   |    Зарегистрирован:  4 месяца 6 дней   |    .torrent скачан:  10 раз
Сидов:  10  [  0 KB/s  ]   Личеров:  2  [  0 KB/s  ]   Подробная статистика пиров
 
   
 
 
Автор Сообщение

Skorp10n ®

Оффлайн

 Активный раздающий 1 Активный раздающий 2
 Активный релизер 1000 Активный релизер 1500 Активный релизер 2000 Активный релизер 250 Активный релизер 3000 Активный релизер 500 Активный релизер 5000 Активный релизер Фильмов (1000) Активный релизер Фильмов (300) Активный релизер Фильмов (600) Активный Форумчанин 1 Активный Форумчанин 2 Активный Форумчанин 3 Активный Форумчанин 4 Друг трекера Карма 1000 Карма 1500 Карма 500 Меценат Ни дня без новостей Орденосец 1 степени Орденосец 2 степени Орденосец 3 степени Почетный орденосец Почетный репортер С Новым 2016 Годом! С Новым 2017 Годом! С Новым 2018 Годом! Супер Мега Контер Квейк ТОП-10

Пол: Мужской

Стаж: 3 года 4 месяца

Наличие запрета:

Сообщений: 7719

Откуда: Казахстан, Караганда

Отдача: не определено

Загрузка: не определено

Нажми

Создавать темы 07-Авг-2018 18:49

[Цитировать]

Информация о фильме- Название: Хищник 2
Оригинальное название: Predator 2
Год выхода: 1990
Жанр: Фантастика, боевик, триллер
Режиссер: Стивен Хопкинс
В ролях: Дэнни Гловер, Гэри Бьюзи, Рубен Блэйдс, Мария Кончита Алонсо, Билл Пэкстон, Роберт Дави, Кевин Питер Холл, Адам Болдуин, Кент МакКорд, Мортон Дауни мл., Кэлвин Локхарт, Стив Кэхэн, Генри Кинги, Кори Рэнд, Эльпидия Каррильо, Лилиан Шовин, Майкл Марк Эдмондсон, Тери Вейгель, Уильям Р. Перри, Алекс Чэпман, Джерард Дж. Уильямс, Джон Канн, Майкл Пападжон, Луис Эпполито, Чарльз Хогк, Сильвия Каудерс, Чарльз Дэвид Ричардс, Джулиан Рейес, Кейси Сэндер, Пэт Скиппер, Кармин Зоззора, Валери Карасек, Чак Бойд, Дэвид Старуолт, Абрахам Альварез, Джим Ишида, Джордж Кристи, Люсинда Уайст-О фильме:-Харриган — крутой полицейский отдела по борьбе с наркотиками полиции Лос-Анджелеса. Ему поручено расследование серии убийств крупных криминальных авторитетов города. Все убийства совершены в извращенной форме и пахнут неприкрытым садизмом. После проведения экспертиз и расследований становится ясно, что убийство — дело рук существа, не имеющего ничего общего с человеком. Землю опять посетил межпланетный охотник, но ему придется столкнуться с существом еще более опасным, чем он сам — с человеком. Харриган выслеживает охотника, постепенно сам становясь охотником. Один на один, как настоящий воин, он ведет бескомпромиссную битву за сохранение чести и права человека не быть существом, на которое можно охотиться.- -Страна: США
Студия: 20th Century Fox Film Corporation, Davis Entertainment, Lawrence Gordon Productions, Silver Pictures
Продолжительность: 01:48:00
Перевод: Дублированный, профессиональный многоголосый, профессиональный двухголосый, авторский-Файл-Кодек: x.264
Качество: BDRip 1080p | Predator.2.1990.REMASTERED.1080p.BluRay.x264.DTS-SWTYBLZ | Encoded from 4k bluray.
Видео: MPEG-4 AVC, 1920x1038, 13.8 Mбит/с, 23.976 кадр/с
Звук:
Аудио #1: Русский ( АС3, 6ch, 640 Кбит/с, 48.0 KHz) Профессиональный (полное дублирование) Лицензия
Аудио #2: Русский ( АС3, 2ch, 192 Кбит/с, 48.0 KHz) Профессиональный (многоголосый, закадровый) ОРТ
Аудио #3: Русский ( АС3, 6ch, 640 Кбит/с, 48.0 KHz) Профессиональный (двухголосый, закадровый) П.Гланц и И.Королева
Аудио #4: Русский ( АС3, 6ch, 640 Кбит/с, 48.0 KHz) Профессиональный(двухголосый, закадровый) R5
Аудио #5: Русский ( АС3, 2ch, 192 Кбит/с, 48.0 KHz) Профессиональный (двухголосый, закадровый) Премьер Видео Фильм
Аудио #6: Русский ( АС3, 6ch, 640 Кбит/с, 48.0 KHz) Авторский (одноголосый, закадровый) А.Гаврилов
Аудио #7: Украинский ( АС3, 6ch, 448 Кбит/с, 48.0 KHz) Профессиональный (двухголосый, закадровый) 1+1
Аудио #8: Английский ( АС3, 6ch, 640 Кбит/с, 48.0 KHz)
Субтитры: русские, aнглийские, французские, немецкие, шведские, китайские, японские, испанские, финские, итальянские, чежские, польские, датские, норвежские (Srt, PGS)-

MediaInfo

-Источник: Predator.2.1990.REMASTERED.1080p.BluRay.x264.DTS-SWTYBLZ
General
Unique ID : 246985713609903835238864998152061365920 (0xB9CFB7D9D6E6EB2A8F7F6E0452D4AEA0)
Complete name : Predator.2.1990.BDRip.1080p.mkv
Format : Matroska
Format version : Version 4 / Version 2
File size : 13.6 GiB
Duration : 1 h 48 min
Overall bit rate : 18.0 Mb/s
Encoded date : UTC 2018-08-06 23:13:22
Writing application : mkvmerge v7.1.0 ('Good Love') 64bit built on Jul 27 2014 13:06:55
Writing library : libebml v1.3.0 + libmatroska v1.4.1
Video
ID : 1
Format : AVC
Format/Info : Advanced Video Codec
Format profile : [email protected]
Format settings : CABAC / 4 Ref Frames
Format settings, CABAC : Yes
Format settings, ReFrames : 4 frames
Codec ID : V_MPEG4/ISO/AVC
Duration : 1 h 48 min
Bit rate : 13.8 Mb/s
Width : 1 920 pixels
Height : 1 038 pixels
Display aspect ratio : 1.85:1
Frame rate mode : Constant
Frame rate : 23.976 (24000/1001) FPS
Color space : YUV
Chroma subsampling : 4:2:0
Bit depth : 8 bits
Scan type : Progressive
Bits/(Pixel*Frame) : 0.289
Stream size : 10.4 GiB (77%)
Writing library : x264 core 155 r2901 7d0ff22
Encoding settings : cabac=1 / ref=4 / deblock=1:-1:-1 / analyse=0x3:0x133 / me=umh / subme=10 / psy=1 / psy_rd=1.00:0.15 / mixed_ref=1 / me_range=48 / chroma_me=1 / trellis=2 / 8x8dct=1 / cqm=0 / deadzone=21,11 / fast_pskip=1 / chroma_qp_offset=-3 / threads=32 / lookahead_threads=5 / sliced_threads=0 / nr=0 / decimate=0 / interlaced=0 / bluray_compat=0 / constrained_intra=0 / bframes=8 / b_pyramid=2 / b_adapt=2 / b_bias=0 / direct=3 / weightb=1 / open_gop=0 / weightp=2 / keyint=250 / keyint_min=23 / scenecut=40 / intra_refresh=0 / rc_lookahead=60 / rc=crf / mbtree=1 / crf=21.0 / qcomp=0.60 / qpmin=0 / qpmax=69 / qpstep=4 / ip_ratio=1.40 / aq=1:1.00
Language : English
Default : Yes
Forced : No
Audio #1
ID : 2
Format : AC-3
Format/Info : Audio Coding 3
Codec ID : A_AC3
Duration : 1 h 48 min
Bit rate mode : Constant
Bit rate : 640 kb/s
Channel(s) : 6 channels
Channel positions : Front: L C R, Side: L R, LFE
Sampling rate : 48.0 kHz
Frame rate : 31.250 FPS (1536 SPF)
Bit depth : 16 bits
Compression mode : Lossy
Stream size : 494 MiB (4%)
Title : АС3 5.1 @ 640 kbps - Dub, BD EUR
Language : Russian
Service kind : Complete Main
Default : Yes
Forced : No
Audio #2
ID : 3
Format : AC-3
Format/Info : Audio Coding 3
Codec ID : A_AC3
Duration : 1 h 47 min
Bit rate mode : Constant
Bit rate : 192 kb/s
Channel(s) : 2 channels
Channel positions : Front: L R
Sampling rate : 48.0 kHz
Frame rate : 31.250 FPS (1536 SPF)
Bit depth : 16 bits
Compression mode : Lossy
Stream size : 148 MiB (1%)
Title : АС3 2.0 @ 192 kbps - MVO, ORT
Language : Russian
Service kind : Complete Main
Default : No
Forced : No
Audio #3
ID : 4
Format : AC-3
Format/Info : Audio Coding 3
Codec ID : A_AC3
Duration : 1 h 48 min
Bit rate mode : Constant
Bit rate : 640 kb/s
Channel(s) : 6 channels
Channel positions : Front: L C R, Side: L R, LFE
Sampling rate : 48.0 kHz
Frame rate : 31.250 FPS (1536 SPF)
Bit depth : 16 bits
Compression mode : Lossy
Stream size : 494 MiB (4%)
Title : АС3 5.1 @ 640 kbps - DVO, Glanc i Koroleva
Language : Russian
Service kind : Complete Main
Default : No
Forced : No
Audio #4
ID : 5
Format : AC-3
Format/Info : Audio Coding 3
Codec ID : A_AC3
Duration : 1 h 48 min
Bit rate mode : Constant
Bit rate : 640 kb/s
Channel(s) : 6 channels
Channel positions : Front: L C R, Side: L R, LFE
Sampling rate : 48.0 kHz
Frame rate : 31.250 FPS (1536 SPF)
Bit depth : 16 bits
Compression mode : Lossy
Stream size : 494 MiB (4%)
Title : АС3 5.1 @ 640 kbps - DVO, R5
Language : Russian
Service kind : Complete Main
Default : No
Forced : No
Audio #5
ID : 6
Format : AC-3
Format/Info : Audio Coding 3
Codec ID : A_AC3
Duration : 1 h 47 min
Bit rate mode : Constant
Bit rate : 192 kb/s
Channel(s) : 2 channels
Channel positions : Front: L R
Sampling rate : 48.0 kHz
Frame rate : 31.250 FPS (1536 SPF)
Bit depth : 16 bits
Compression mode : Lossy
Stream size : 148 MiB (1%)
Title : АС3 2.0 @ 192 kbps - DVO, Premier-Video
Language : Russian
Service kind : Complete Main
Default : No
Forced : No
Audio #6
ID : 7
Format : AC-3
Format/Info : Audio Coding 3
Codec ID : A_AC3
Duration : 1 h 48 min
Bit rate mode : Constant
Bit rate : 640 kb/s
Channel(s) : 6 channels
Channel positions : Front: L C R, Side: L R, LFE
Sampling rate : 48.0 kHz
Frame rate : 31.250 FPS (1536 SPF)
Bit depth : 16 bits
Compression mode : Lossy
Stream size : 494 MiB (4%)
Title : АС3 5.1 @ 640 kbps - AVO, Gavrilov
Language : Russian
Service kind : Complete Main
Default : No
Forced : No
Audio #7
ID : 8
Format : AC-3
Format/Info : Audio Coding 3
Codec ID : A_AC3
Duration : 1 h 48 min
Bit rate mode : Constant
Bit rate : 448 kb/s
Channel(s) : 6 channels
Channel positions : Front: L C R, Side: L R, LFE
Sampling rate : 48.0 kHz
Frame rate : 31.250 FPS (1536 SPF)
Bit depth : 16 bits
Compression mode : Lossy
Stream size : 346 MiB (2%)
Title : АС3 5.1 @ 448 kbps - DVO, 1+1
Language : Ukrainian
Service kind : Complete Main
Default : No
Forced : No
Audio #8
ID : 9
Format : AC-3
Format/Info : Audio Coding 3
Codec ID : A_AC3
Duration : 1 h 48 min
Bit rate mode : Constant
Bit rate : 640 kb/s
Channel(s) : 6 channels
Channel positions : Front: L C R, Side: L R, LFE
Sampling rate : 48.0 kHz
Frame rate : 31.250 FPS (1536 SPF)
Bit depth : 16 bits
Compression mode : Lossy
Stream size : 494 MiB (4%)
Title : АС3 5.1 @ 640 kbps - Original
Language : English
Service kind : Complete Main
Default : No
Forced : No
Text #1
ID : 10
Format : UTF-8
Codec ID : S_TEXT/UTF8
Codec ID/Info : UTF-8 Plain Text
Duration : 1 h 31 min
Bit rate : 0 b/s
Count of elements : 12
Stream size : 465 Bytes (0%)
Title : Forced
Language : Russian
Default : Yes
Forced : No
Text #2
ID : 11
Format : UTF-8
Codec ID : S_TEXT/UTF8
Codec ID/Info : UTF-8 Plain Text
Duration : 1 h 40 min
Bit rate : 63 b/s
Count of elements : 703
Stream size : 46.4 KiB (0%)
Title : Full
Language : Russian
Default : No
Forced : No
Text #3
ID : 12
Format : UTF-8
Codec ID : S_TEXT/UTF8
Codec ID/Info : UTF-8 Plain Text
Duration : 1 h 40 min
Bit rate : 37 b/s
Count of elements : 703
Stream size : 27.9 KiB (0%)
Title : Full, v1
Language : English
Default : No
Forced : No
Text #4
ID : 13
Format : UTF-8
Codec ID : S_TEXT/UTF8
Codec ID/Info : UTF-8 Plain Text
Duration : 1 h 42 min
Bit rate : 39 b/s
Count of elements : 897
Stream size : 29.8 KiB (0%)
Title : Full, v2
Language : English
Default : No
Forced : No
Text #5
ID : 14
Format : PGS
Muxing mode : zlib
Codec ID : S_HDMV/PGS
Codec ID/Info : Picture based subtitle format used on BDs/HD-DVDs
Duration : 1 h 40 min
Bit rate : 9 088 b/s
Count of elements : 2120
Stream size : 6.56 MiB (0%)
Title : English-PGS
Language : English
Default : No
Forced : No
Text #6
ID : 15
Format : PGS
Muxing mode : zlib
Codec ID : S_HDMV/PGS
Codec ID/Info : Picture based subtitle format used on BDs/HD-DVDs
Duration : 1 h 40 min
Bit rate : 7 090 b/s
Count of elements : 1630
Stream size : 5.08 MiB (0%)
Title : Spanish-PGS
Language : Spanish
Default : No
Forced : No
Text #7
ID : 16
Format : PGS
Muxing mode : zlib
Codec ID : S_HDMV/PGS
Codec ID/Info : Picture based subtitle format used on BDs/HD-DVDs
Duration : 1 h 46 min
Bit rate : 8 911 b/s
Count of elements : 1553
Stream size : 6.82 MiB (0%)
Title : French-PGS
Language : French
Default : No
Forced : No
Text #8
ID : 17
Format : PGS
Muxing mode : zlib
Codec ID : S_HDMV/PGS
Codec ID/Info : Picture based subtitle format used on BDs/HD-DVDs
Duration : 1 h 47 min
Bit rate : 9 687 b/s
Count of elements : 1650
Stream size : 7.42 MiB (0%)
Title : Spanish-PGS
Language : Spanish
Default : No
Forced : No
Text #9
ID : 18
Format : PGS
Muxing mode : zlib
Codec ID : S_HDMV/PGS
Codec ID/Info : Picture based subtitle format used on BDs/HD-DVDs
Duration : 1 h 47 min
Bit rate : 8 782 b/s
Count of elements : 1594
Stream size : 6.72 MiB (0%)
Title : Danish-PGS
Language : Danish
Default : No
Forced : No
Text #10
ID : 19
Format : PGS
Muxing mode : zlib
Codec ID : S_HDMV/PGS
Codec ID/Info : Picture based subtitle format used on BDs/HD-DVDs
Duration : 1 h 40 min
Bit rate : 8 863 b/s
Count of elements : 1558
Stream size : 6.36 MiB (0%)
Title : Dutch-PGS
Language : Dutch
Default : No
Forced : No
Text #11
ID : 20
Format : PGS
Muxing mode : zlib
Codec ID : S_HDMV/PGS
Codec ID/Info : Picture based subtitle format used on BDs/HD-DVDs
Duration : 1 h 40 min
Bit rate : 9 452 b/s
Count of elements : 1512
Stream size : 6.78 MiB (0%)
Title : Finnish-PGS
Language : Finnish
Default : No
Forced : No
Text #12
ID : 21
Format : PGS
Muxing mode : zlib
Codec ID : S_HDMV/PGS
Codec ID/Info : Picture based subtitle format used on BDs/HD-DVDs
Duration : 1 h 40 min
Bit rate : 6 032 b/s
Count of elements : 1236
Stream size : 4.33 MiB (0%)
Title : German-PGS
Language : German
Default : No
Forced : No
Text #13
ID : 22
Format : PGS
Muxing mode : zlib
Codec ID : S_HDMV/PGS
Codec ID/Info : Picture based subtitle format used on BDs/HD-DVDs
Duration : 1 h 46 min
Bit rate : 8 514 b/s
Count of elements : 1589
Stream size : 6.51 MiB (0%)
Title : Italian-PGS
Language : Italian
Default : No
Forced : No
Text #14
ID : 23
Format : PGS
Muxing mode : zlib
Codec ID : S_HDMV/PGS
Codec ID/Info : Picture based subtitle format used on BDs/HD-DVDs
Duration : 1 h 46 min
Bit rate : 8 518 b/s
Count of elements : 1549
Stream size : 6.52 MiB (0%)
Title : Norwegian-PGS
Language : Norwegian
Default : No
Forced : No
Text #15
ID : 24
Format : PGS
Muxing mode : zlib
Codec ID : S_HDMV/PGS
Codec ID/Info : Picture based subtitle format used on BDs/HD-DVDs
Duration : 1 h 46 min
Bit rate : 8 668 b/s
Count of elements : 1550
Stream size : 6.63 MiB (0%)
Title : Swedish-PGS
Language : Swedish
Default : No
Forced : No
Text #16
ID : 25
Format : PGS
Muxing mode : zlib
Codec ID : S_HDMV/PGS
Codec ID/Info : Picture based subtitle format used on BDs/HD-DVDs
Duration : 1 h 40 min
Bit rate : 9 003 b/s
Count of elements : 1202
Stream size : 6.47 MiB (0%)
Title : Chinese-PGS
Language : Chinese
Default : No
Forced : No
Text #17
ID : 26
Format : PGS
Muxing mode : zlib
Codec ID : S_HDMV/PGS
Codec ID/Info : Picture based subtitle format used on BDs/HD-DVDs
Duration : 1 h 46 min
Bit rate : 8 847 b/s
Count of elements : 1569
Stream size : 6.77 MiB (0%)
Title : Czech-PGS
Language : Czech
Default : No
Forced : No
Text #18
ID : 27
Format : PGS
Muxing mode : zlib
Codec ID : S_HDMV/PGS
Codec ID/Info : Picture based subtitle format used on BDs/HD-DVDs
Duration : 1 h 40 min
Bit rate : 9 301 b/s
Count of elements : 1638
Stream size : 6.67 MiB (0%)
Title : Polish-PGS
Language : Polish
Default : No
Forced : No
Text #19
ID : 28
Format : PGS
Muxing mode : zlib
Codec ID : S_HDMV/PGS
Codec ID/Info : Picture based subtitle format used on BDs/HD-DVDs
Duration : 1 h 40 min
Bit rate : 5 239 b/s
Count of elements : 1366
Stream size : 3.76 MiB (0%)
Title : Japanese-PGS
Language : Japanese
Default : No
Forced : No
Menu
00:00:00.000 : en:Chapter 1
00:03:11.608 : en:Chapter 2
00:07:26.112 : en:Chapter 3
00:11:40.199 : en:Chapter 4
00:14:05.177 : en:Chapter 5
00:16:03.128 : en:Chapter 6
00:18:57.761 : en:Chapter 7
00:22:21.214 : en:Chapter 8
00:25:48.547 : en:Chapter 9
00:29:03.658 : en:Chapter 10
00:30:19.984 : en:Chapter 11
00:32:41.000 : en:Chapter 12
00:36:39.655 : en:Chapter 13
00:41:01.792 : en:Chapter 14
00:43:00.202 : en:Chapter 15
00:47:17.668 : en:Chapter 16
00:51:13.612 : en:Chapter 17
00:53:42.844 : en:Chapter 18
00:58:14.199 : en:Chapter 19
01:01:18.508 : en:Chapter 20
01:04:46.382 : en:Chapter 21
01:07:36.052 : en:Chapter 22
01:15:41.662 : en:Chapter 23
01:16:49.313 : en:Chapter 24
01:19:23.008 : en:Chapter 25
01:22:01.583 : en:Chapter 26
01:26:10.707 : en:Chapter 27
01:31:31.986 : en:Chapter 28
01:33:38.112 : en:Chapter 29
01:36:19.231 : en:Chapter 30
01:37:54.368 : en:Chapter 31
01:41:48.393 : en:Chapter 32-
-

Скриншоты

--
-
[free-tor.com].t16458.torrent 
Торрент: Зарегистрирован [ 2018-08-07 18:49 ] · 98B473025F9A7E752FCC8E180D4CEDC7A5EB0770

Скачать .torrent

Скачать .torrent

35 KB

Статус: проверено
.torrent скачан: 10 раз
Размер: 13,56 GB
Правила
Похожие темы
[Профиль] [ЛС]
Показать сообщения:    
Ответить на тему

Текущее время: 14-Дек 16:14

Часовой пояс: UTC + 4



Вы не можете начинать темы
Вы не можете отвечать на сообщения
Вы не можете редактировать свои сообщения
Вы не можете удалять свои сообщения
Вы не можете голосовать в опросах
Вы не можете прикреплять файлы к сообщениям
Вы можете скачивать файлы
Анализ веб сайтов Яндекс.Метрика Рейтинг@Mail.ru