Мстители / The Avengers (Джосс Уидон) [2012, фантастика, боевик, приключения, комикс, супергерой, UHD BDRemux 2160p от ExkinoRay | 4K | HDR | D, A]

Ответить на тему
Статистика раздачи [Обновить пиров]
Размер:  68,62 GB   |    Зарегистрирован:  12 дней   |    .torrent скачан:  2 раза
Сидов:  41  [  0 KB/s  ]   Личеров:  15  [  0 KB/s  ]   Подробная статистика пиров
 
   
 
 
Автор Сообщение

Skorp10n ®

Онлайн

 Активный раздающий 1 Активный раздающий 2
 Активный релизер 1000 Активный релизер 1500 Активный релизер 2000 Активный релизер 250 Активный релизер 3000 Активный релизер 500 Активный релизер 5000 Активный релизер Фильмов (300) Активный релизер Фильмов (600) Активный Форумчанин 1 Активный Форумчанин 2 Активный Форумчанин 3 Активный Форумчанин 4 Друг трекера Карма 1000 Карма 1500 Карма 500 Меценат Ни дня без новостей Орденосец 1 степени Орденосец 2 степени Орденосец 3 степени Почетный орденосец Почетный репортер С Новым 2016 Годом! С Новым 2017 Годом! С Новым 2018 Годом! Супер Мега Контер Квейк ТОП-10

Пол: Мужской

Стаж: 3 года

Наличие запрета:

Сообщений: 6112

Откуда: Казахстан, Караганда

Отдача: не определено

Загрузка: не определено

Нажми

Создавать темы 08-Авг-2018 12:20

[Цитировать]

Мстители
The Avengers
«Avengers Assemble!»
-Информация о фильме- Название: Мстители
Оригинальное название: The Avengers
Год выпуска: 2012
Жанр: Фантастика, боевик, приключения, комикс, супергерой
Выпущено: США, Marvel Enterprises, Marvel Studios Inc.
Режиссер: Джосс Уидон
В ролях: Роберт Дауни мл., Крис Эванс, Марк Руффало, Крис Хемсворт, Скарлетт Йоханссон, Джереми Реннер, Том Хиддлстон, Сэмюэл Л. Джексон, Кларк Грегг, Коби Смолдерс, Стеллан Скарсгард, Гвинет Пэлтроу, Пол Беттани, Алексис Денисоф, Тина Бенко, Ежи Сколимовский, Кирилл Никифоров, Джефф Вульф, М’лаа Каур Синх, Рашми Рустаги, Пауэрс Бут, Дженни Агаттер, Артур Дарбинян, Дональд Ли, Ивэн Коул, Алисия Сикстос, Джесси Гарсиа, Максимилианно Эрнандез, Дитер Рисл, Кеннет Тайгар-Продолжительность: 02:22:54
Перевод: Дублированный, Авторский.-Описание:-Локи, сводный брат Тора, возвращается, и в этот раз он не один. Земля на грани порабощения, и только лучшие из лучших могут спасти человечество.
Ник Фьюри, глава международной организации Щ. И. Т., собирает выдающихся поборников справедливости и добра, чтобы отразить атаку. Под предводительством Капитана Америки Железный Человек, Тор, Невероятный Халк, Соколиный глаз и Чёрная Вдова вступают в войну с захватчиком.
- -Файл-Контейнер: МКV
Качество: Blu-Ray Remux (2160p)
Видео: HEVC, 3840x2160 (16:9), 23.976 fps, 43.0 Mb/s (0.216 bit/pixel)
Аудио #1: DTS MA, 48.0 kHz, 6 ch, 2 113 kb/s (Russian) | Дублированный |
Аудио #2: AC-3, 48.0 kHz, 6 ch, 640 kb/s, CBR (Russian) | Дублированный |
Аудио #3: AC-3, 48.0 kHz, 6 ch, 640 kb/s, CBR (Ukrainian) | Дублированный |
Аудио #4: DTS MA, 48.0 kHz, 8 ch, 5 287 kb/s (Russian) | Авторский, Ю.Сербин |
Аудио #5: DTS MA, 48.0 kHz, 8 ch, 5 233 kb/s (Russian) | Авторский, А.Гаврилов |
Аудио #6: AC-3, 48.0 kHz, 6 ch, 640 kb/s, CBR (Russian) | Авторский, А.Гаврилов |
Аудио #7: TrueHD TrueHD+Atmos / TrueHD, / 48.0 kHz, Object Based / 8 ch, 4 971 kb/s, VBR (English) | Original |
Аудио #8: DTS MA / Core, 48.0 kHz, 8 / 6 ch, 5 216 kb/s / 1 509 kb/s, VBR / CBR (English) | Original |
Аудио #9: AC-3, 48.0 kHz, 6 ch, 640 kb/s, CBR (English) | Original, AC3 core |
Аудио #10: AC-3, 48.0 kHz, 2 ch, 320 kb/s, CBR (English) | Audiodeion |
Субтитры: Russian(Forced, full), Ukrainian(Forced, full), English (Forced, full, SDH)-Релиз от: Автор релиза: Ivantsov-

Скриншоты

--
-

MI:

-Общее
Уникальный идентификатор : 298289021925511390156209552450691949773 (0xE068603DA88C03ACEF27694B08FE64CD)
Полное имя : The.Avengers.2012.UHD.BDRemux.2160p.HEVC.HDR.IVA(3xRUS.UKR.ENG).ExKinoRay.mkv
Формат : Matroska
Версия формата : Version 4 / Version 2
Размер файла : 68,6 Гбайт
Продолжительность : 2 ч. 22 м.
Режим общего битрейта : Переменный
Общий поток : 68,7 Мбит/сек
Название фильма : Мстители / The Avengers ( 2012 ) UHD BDRemux | HDR, 4K | IVA(RUS.UKR.ENG) | ExKinoRay
Дата кодирования : UTC 2018-08-07 14:52:45
Программа кодирования : mkvmerge v25.0.0 ('Prog Noir') 64-bit
Библиотека кодирования : libebml v1.3.6 + libmatroska v1.4.9
Обложка : Yes
Attachments : cover
Видео
Идентификатор : 1
Формат : HEVC
Формат/Информация : High Efficiency Video Coding
Коммерческое название : HDR10
Профиль формата : Main [email protected]@High
Идентификатор кодека : V_MPEGH/ISO/HEVC
Продолжительность : 2 ч. 22 м.
Битрейт : 43,0 Мбит/сек
Ширина : 3840 пикселей
Высота : 2160 пикселей
Соотношение сторон : 16:9
Режим частоты кадров : Постоянный
Частота кадров : 23,976 (24000/1001) кадра/сек
Цветовое пространство : YUV
Субдискретизация насыщенности : 4:2:0 (Type 2)
Битовая глубина : 10 бит
Бит/(Пиксели*Кадры) : 0.216
Размер потока : 42,9 Гбайт (62%)
Заголовок : The.Avengers.2012.UHD.BDRemux.2160p.HEVC.HDR
Язык : English
Default : Да
Forced : Нет
Цветовой диапазон : Limited
Основные цвета : BT.2020
Характеристики трансфера : PQ
Коэффициенты матрицы : BT.2020 non-constant
MasteringDisplay_ColorPrimaries : Display P3
MasteringDisplay_Luminance : min: 0.0001 cd/m2, max: 1000 cd/m2
Аудио #1
Идентификатор : 2
Формат : DTS
Формат/Информация : Digital Theater Systems
Профиль формата : MA / Core
Идентификатор кодека : A_DTS
Продолжительность : 2 ч. 22 м.
Вид битрейта : Переменный / Постоянный
Битрейт : 2113 Кбит/сек / 1509 Кбит/сек
Каналы : 6 каналов
Расположение каналов : Front: L C R, Side: L R, LFE
Частота : 48,0 КГц
Частота кадров : 93,750 кадра/сек (512 SPF)
Битовая глубина : 16 бит
Метод сжатия : Без потерь / Lossy
Размер потока : 2,11 Гбайт (3%)
Заголовок : | Дублированный |
Язык : Russian
Default : Да
Forced : Нет
Аудио #2
Идентификатор : 3
Формат : AC-3
Формат/Информация : Audio Coding 3
Идентификатор кодека : A_AC3
Продолжительность : 2 ч. 22 м.
Вид битрейта : Постоянный
Битрейт : 640 Кбит/сек
Каналы : 6 каналов
Расположение каналов : Front: L C R, Side: L R, LFE
Частота : 48,0 КГц
Частота кадров : 31,250 кадров/сек (1536 SPF)
Битовая глубина : 16 бит
Метод сжатия : С потерями
Размер потока : 654 Мбайт (1%)
Заголовок : | Дублированный |
Язык : Russian
ServiceKind : Complete Main
Default : Нет
Forced : Нет
Аудио #3
Идентификатор : 4
Формат : AC-3
Формат/Информация : Audio Coding 3
Идентификатор кодека : A_AC3
Продолжительность : 2 ч. 22 м.
Вид битрейта : Постоянный
Битрейт : 640 Кбит/сек
Каналы : 6 каналов
Расположение каналов : Front: L C R, Side: L R, LFE
Частота : 48,0 КГц
Частота кадров : 31,250 кадров/сек (1536 SPF)
Битовая глубина : 16 бит
Метод сжатия : С потерями
Размер потока : 654 Мбайт (1%)
Заголовок : | Дублированный |
Язык : Ukrainian
ServiceKind : Complete Main
Default : Нет
Forced : Нет
Аудио #4
Идентификатор : 5
Формат : DTS
Формат/Информация : Digital Theater Systems
Профиль формата : MA / Core
Идентификатор кодека : A_DTS
Продолжительность : 2 ч. 22 м.
Вид битрейта : Переменный / Постоянный
Битрейт : 5287 Кбит/сек / 1509 Кбит/сек
Каналы : 8 каналов / 6 каналов
Расположение каналов : Front: L C R, Side: L R, Back: L R, LFE / Front: L C R, Side: L R, LFE
Частота : 48,0 КГц
Частота кадров : 93,750 кадра/сек (512 SPF)
Битовая глубина : 24 бит
Метод сжатия : Без потерь / Lossy
Размер потока : 5,28 Гбайт (8%)
Заголовок : | AVO, Ю.Сербин |
Язык : Russian
Default : Нет
Forced : Нет
Аудио #5
Идентификатор : 6
Формат : DTS
Формат/Информация : Digital Theater Systems
Профиль формата : MA / Core
Идентификатор кодека : A_DTS
Продолжительность : 2 ч. 22 м.
Вид битрейта : Переменный / Постоянный
Битрейт : 5233 Кбит/сек / 1509 Кбит/сек
Каналы : 8 каналов / 6 каналов
Расположение каналов : Front: L C R, Side: L R, Back: L R, LFE / Front: L C R, Side: L R, LFE
Частота : 48,0 КГц
Частота кадров : 93,750 кадра/сек (512 SPF)
Битовая глубина : 24 бит
Метод сжатия : Без потерь / Lossy
Размер потока : 5,22 Гбайт (8%)
Заголовок : | AVO, А.Гаврилов |
Язык : Russian
Default : Нет
Forced : Нет
Аудио #6
Идентификатор : 7
Формат : AC-3
Формат/Информация : Audio Coding 3
Идентификатор кодека : A_AC3
Продолжительность : 2 ч. 22 м.
Вид битрейта : Постоянный
Битрейт : 640 Кбит/сек
Каналы : 6 каналов
Расположение каналов : Front: L C R, Side: L R, LFE
Частота : 48,0 КГц
Частота кадров : 31,250 кадров/сек (1536 SPF)
Битовая глубина : 16 бит
Метод сжатия : С потерями
Размер потока : 654 Мбайт (1%)
Заголовок : | AVO, А.Гаврилов |
Язык : Russian
ServiceKind : Complete Main
Default : Нет
Forced : Нет
Аудио #7
Идентификатор : 8
Формат : TrueHD
Профиль формата : TrueHD+Atmos / TrueHD
Идентификатор кодека : A_TRUEHD
Продолжительность : 2 ч. 22 м.
Вид битрейта : Переменный
Битрейт : 4971 Кбит/сек
Максимальный битрейт : 7056 Кбит/сек
Каналы : Object Based / 8 каналов
Расположение каналов : Object Based / Front: L C R, Side: L R, Back: L R, LFE
Частота : / 48,0 КГц
Частота кадров : 1200,000 кадров/сек (40 SPF)
Метод сжатия : Без потерь
Задержка видео : 32 мс.
Размер потока : 4,96 Гбайт (7%)
Заголовок : | Original |
Язык : English
Default : Нет
Forced : Нет
Аудио #8
Идентификатор : 9
Формат : DTS
Формат/Информация : Digital Theater Systems
Профиль формата : MA / Core
Идентификатор кодека : A_DTS
Продолжительность : 2 ч. 22 м.
Вид битрейта : Переменный / Постоянный
Битрейт : 5216 Кбит/сек / 1509 Кбит/сек
Каналы : 8 каналов / 6 каналов
Расположение каналов : Front: L C R, Side: L R, Back: L R, LFE / Front: L C R, Side: L R, LFE
Частота : 48,0 КГц
Частота кадров : 93,750 кадра/сек (512 SPF)
Битовая глубина : 24 бит
Метод сжатия : Без потерь / Lossy
Размер потока : 5,21 Гбайт (8%)
Заголовок : | Original |
Язык : English
Default : Нет
Forced : Нет
Аудио #9
Идентификатор : 10
Формат : AC-3
Формат/Информация : Audio Coding 3
Идентификатор кодека : A_AC3
Продолжительность : 2 ч. 22 м.
Вид битрейта : Постоянный
Битрейт : 640 Кбит/сек
Каналы : 6 каналов
Расположение каналов : Front: L C R, Side: L R, LFE
Частота : 48,0 КГц
Частота кадров : 31,250 кадров/сек (1536 SPF)
Битовая глубина : 16 бит
Метод сжатия : С потерями
Размер потока : 654 Мбайт (1%)
Заголовок : | Original, AC3 core |
Язык : English
ServiceKind : Complete Main
Default : Нет
Forced : Нет
Аудио #10
Идентификатор : 11
Формат : AC-3
Формат/Информация : Audio Coding 3
Идентификатор кодека : A_AC3
Продолжительность : 2 ч. 22 м.
Вид битрейта : Постоянный
Битрейт : 320 Кбит/сек
Каналы : 2 канала
Расположение каналов : Front: L R
Частота : 48,0 КГц
Частота кадров : 31,250 кадров/сек (1536 SPF)
Битовая глубина : 16 бит
Метод сжатия : С потерями
Размер потока : 327 Мбайт (0%)
Заголовок : | Audiodeion |
Язык : English
ServiceKind : Complete Main
Default : Нет
Forced : Нет
Текст #1
Идентификатор : 12
Формат : UTF-8
Идентификатор кодека : S_TEXT/UTF8
Идентификатор кодека/Информация : UTF-8 Plain Text
Продолжительность : 2 ч. 4 м.
Битрейт : 0 бит/сек
ElementCount : 22
Размер потока : 861 байт (0%)
Заголовок : Forced
Язык : Russian
Default : Да
Forced : Да
Текст #2
Идентификатор : 13
Формат : UTF-8
Идентификатор кодека : S_TEXT/UTF8
Идентификатор кодека/Информация : UTF-8 Plain Text
Продолжительность : 2 ч. 15 м.
Битрейт : 84 бит/сек
ElementCount : 1766
Размер потока : 83,6 Кбайт (0%)
Заголовок : Full
Язык : Russian
Default : Нет
Forced : Нет
Текст #3
Идентификатор : 14
Формат : UTF-8
Идентификатор кодека : S_TEXT/UTF8
Идентификатор кодека/Информация : UTF-8 Plain Text
Продолжительность : 2 ч. 15 м.
Битрейт : 86 бит/сек
ElementCount : 1771
Размер потока : 85,6 Кбайт (0%)
Заголовок : Full Voronin
Язык : Russian
Default : Нет
Forced : Нет
Текст #4
Идентификатор : 15
Формат : UTF-8
Идентификатор кодека : S_TEXT/UTF8
Идентификатор кодека/Информация : UTF-8 Plain Text
Продолжительность : 2 ч. 4 м.
Битрейт : 1 бит/сек
ElementCount : 43
Размер потока : 1,67 Кбайт (0%)
Заголовок : Forced
Язык : Ukrainian
Default : Нет
Forced : Да
Текст #5
Идентификатор : 16
Формат : UTF-8
Идентификатор кодека : S_TEXT/UTF8
Идентификатор кодека/Информация : UTF-8 Plain Text
Продолжительность : 2 ч. 15 м.
Битрейт : 88 бит/сек
ElementCount : 1765
Размер потока : 87,9 Кбайт (0%)
Заголовок : Full
Язык : Ukrainian
Default : Нет
Forced : Нет
Текст #6
Идентификатор : 17
Формат : UTF-8
Идентификатор кодека : S_TEXT/UTF8
Идентификатор кодека/Информация : UTF-8 Plain Text
Продолжительность : 3 м. 46 с.
Битрейт : 24 бит/сек
ElementCount : 31
Размер потока : 700 байт (0%)
Заголовок : Forced
Язык : English
Default : Нет
Forced : Нет
Текст #7
Идентификатор : 18
Формат : UTF-8
Идентификатор кодека : S_TEXT/UTF8
Идентификатор кодека/Информация : UTF-8 Plain Text
Продолжительность : 2 ч. 15 м.
Битрейт : 53 бит/сек
ElementCount : 1753
Размер потока : 53,3 Кбайт (0%)
Заголовок : Full
Язык : English
Default : Нет
Forced : Нет
Текст #8
Идентификатор : 19
Формат : UTF-8
Идентификатор кодека : S_TEXT/UTF8
Идентификатор кодека/Информация : UTF-8 Plain Text
Продолжительность : 2 ч. 15 м.
Битрейт : 59 бит/сек
ElementCount : 2043
Размер потока : 58,9 Кбайт (0%)
Заголовок : Full SDH
Язык : English
Default : Нет
Forced : Нет
Меню
00:00:00.000 : :Opening Titles
00:08:02.314 : :Loki's Arrival
00:11:49.165 : :Tessaract Lost
00:15:18.750 : :Natasha's Interrogation
00:20:33.481 : :The Big Guy
00:23:04.257 : :Man Out Of Time
00:29:39.443 : :Tony & Pepper
00:37:23.989 : :Loki's Bargain
00:42:47.981 : :Stuttgart Confrontation
00:50:22.268 : :Mountain Top Battle
01:01:04.661 : :What's His Play?
01:14:05.106 : :Tensions Rise
01:28:01.234 : :Carrier Battle
01:38:20.560 : :Man Down
01:45:40.167 : :The Invasion Begins
01:51:15.085 : :The War
01:57:47.769 : :Avengers Assembled
02:04:38.679 : :Hope Is Lost
02:09:39.395 : :The Sacrifice Play
02:13:10.690 : :A Promise
02:22:54.647 : :End Credits-
-
[free-tor.com].t16462.torrent 
Торрент: Зарегистрирован [ 2018-08-08 12:20 ] · 97D3E710A4D3230A1CED457B79E7C4E11A99F2F4

Скачать .torrent

Скачать .torrent

173 KB

Статус: проверено
.torrent скачан: 2 раз
Размер: 68,62 GB
Правила
Похожие темы
[Профиль] [ЛС]
Показать сообщения:    
Ответить на тему

Текущее время: 20-Авг 22:07

Часовой пояс: UTC + 4



Вы не можете начинать темы
Вы не можете отвечать на сообщения
Вы не можете редактировать свои сообщения
Вы не можете удалять свои сообщения
Вы не можете голосовать в опросах
Вы не можете прикреплять файлы к сообщениям
Вы можете скачивать файлы
Анализ веб сайтов Яндекс.Метрика Рейтинг@Mail.ru