2036, происхождение неизвестно / 2036 Origin Unknown (Хасраф Дулул) [2018, фантастика, BDRemux 1080p от ExKinoRay | HDRezka Studio]

Ответить на тему
Статистика раздачи [Обновить пиров]
Размер:  15,88 GB   |    Зарегистрирован:  12 дней   |    .torrent скачан:  7 раз
Сидов:  85  [  0 KB/s  ]   Личеров:  13  [  0 KB/s  ]   Подробная статистика пиров
 
   
 
 
Автор Сообщение

Skorp10n ®

Онлайн

 Активный раздающий 1 Активный раздающий 2
 Активный релизер 1000 Активный релизер 1500 Активный релизер 2000 Активный релизер 250 Активный релизер 3000 Активный релизер 500 Активный релизер 5000 Активный релизер Фильмов (300) Активный релизер Фильмов (600) Активный Форумчанин 1 Активный Форумчанин 2 Активный Форумчанин 3 Активный Форумчанин 4 Друг трекера Карма 1000 Карма 1500 Карма 500 Меценат Ни дня без новостей Орденосец 1 степени Орденосец 2 степени Орденосец 3 степени Почетный орденосец Почетный репортер С Новым 2016 Годом! С Новым 2017 Годом! С Новым 2018 Годом! Супер Мега Контер Квейк ТОП-10

Пол: Мужской

Стаж: 3 года

Наличие запрета:

Сообщений: 6112

Откуда: Казахстан, Караганда

Отдача: не определено

Загрузка: не определено

Нажми

Создавать темы 08-Авг-2018 12:25

[Цитировать]

Информация о фильме- Название: 2036, происхождение неизвестно
Оригинальное название: 2036 Origin Unknown
Год выхода: 2018
Жанр: Фантастика
Режиссер: Хасраф Дулул
В ролях: Кэти Сакхофф, Джули Кокс, Стивен Кри, Рэй Фиарон, Изабелль Марлоу, Джо Уолтерс, Дэвид К.С. Тсе- -О фильме: Действие фильма разворачивается в 30-е годы XXI века. Человечество уже отправило первую миссию на Марс, но она завершилась провалом. В центре повествования находится оператор экспедиции Маккензи Уилсон. Принимать решения ей помогает недавно усовершенствованная система искусственного интеллекта A.R.T.I. Маккензи необходимо как можно скорее выяснить, что пошло не так в ходе той провалившейся миссии. Первое время расследование идёт как по накатанной, однако затем главная героиня выясняет, что искусственный интеллект действует не в её интересах. Вскоре Маккензи раскрывает масштабный заговор, в результате которого все жители Земли могут погибнуть…-Страна: Великобритания
Студия: Head Gear Films, Metrol Technology, Origin Unknown Films
Продолжительность: 01:34:41
Перевод: Профессиональный многоголосый | HDRezka Studio-Качество: BDRemux 1080p
Видео: MPEG-4 AVC, 1920x1080, 22.0 Мbit/s, 23.976 fps
Звук:
Аудио #01: 48 kHz, AC3, 2.0, 192 Kbps | HDRezka Studio | RUS |
Аудио #02: 48 kHz, DTS-HD MA, 5.1, 1853 Kbps | Оригинал | ENG |
Субтитры: Английские-

Скриншоты

--
-

MI

-General
Unique ID : 154075093294996071388172181611580395540 (0x73E9C8991967BCCAC48E2C8DF90A9014)
Complete name : D:Video1112036.Origin.Unknown.2018.BDREMUX.1080p.ExKinoRay.mkv
Format : Matroska
Format version : Version 4 / Version 2
File size : 15.9 GiB
Duration : 1 h 34 min
Overall bit rate mode : Variable
Overall bit rate : 24.0 Mb/s
Movie name : 2036 Origin Unknown 2018 from ExKinoRay
Encoded date : UTC 2018-08-07 22:54:32
Writing application : mkvmerge v23.0.0 ('The Bride Said No') 64-bit
Writing library : libebml v1.3.6 + libmatroska v1.4.9
Video
ID : 1
Format : AVC
Format/Info : Advanced Video Codec
Format profile : [email protected]
Format settings : CABAC / 3 Ref Frames
Format settings, CABAC : Yes
Format settings, ReFrames : 3 frames
Codec ID : V_MPEG4/ISO/AVC
Duration : 1 h 34 min
Bit rate mode : Variable
Bit rate : 22.0 Mb/s
Maximum bit rate : 37.0 Mb/s
Width : 1 920 pixels
Height : 1 080 pixels
Display aspect ratio : 16:9
Frame rate mode : Constant
Frame rate : 23.976 (24000/1001) FPS
Color space : YUV
Chroma subsampling : 4:2:0
Bit depth : 8 bits
Scan type : Progressive
Bits/(Pixel*Frame) : 0.442
Stream size : 14.5 GiB (91%)
Language : English
Default : Yes
Forced : No
Audio #1
ID : 2
Format : AC-3
Format/Info : Audio Coding 3
Commercial name : Dolby Digital
Codec ID : A_AC3
Duration : 1 h 34 min
Bit rate mode : Constant
Bit rate : 192 kb/s
Channel(s) : 2 channels
Channel positions : Front: L R
Sampling rate : 48.0 kHz
Frame rate : 31.250 FPS (1536 SPF)
Bit depth : 16 bits
Compression mode : Lossy
Stream size : 130 MiB (1%)
Title : MVO
Language : Russian
Service kind : Complete Main
Default : Yes
Forced : Yes
Audio #2
ID : 3
Format : DTS
Format/Info : Digital Theater Systems
Format profile : MA / Core
Codec ID : A_DTS
Duration : 1 h 34 min
Bit rate mode : Variable / Constant
Bit rate : 1 853 kb/s / 1 509 kb/s
Channel(s) : 6 channels
Channel positions : Front: L C R, Side: L R, LFE
Sampling rate : 48.0 kHz
Frame rate : 93.750 FPS (512 SPF)
Bit depth : 16 bits
Compression mode : Lossless / Lossy
Stream size : 1.23 GiB (8%)
Title : Original
Language : English
Default : No
Forced : No
Text
ID : 4
Format : UTF-8
Codec ID : S_TEXT/UTF8
Codec ID/Info : UTF-8 Plain Text
Duration : 1 h 32 min
Bit rate : 59 b/s
Count of elements : 1024
Stream size : 40.2 KiB (0%)
Language : English
Default : No
Forced : No
Menu
00:00:00.000 : en:00:00:00.000
00:08:47.277 : en:00:08:47.277
00:16:59.227 : en:00:16:59.227
00:24:26.090 : en:00:24:26.090
00:33:56.159 : en:00:33:56.159
00:43:15.760 : en:00:43:15.760
00:50:27.149 : en:00:50:27.149
00:57:13.639 : en:00:57:13.639
01:05:53.199 : en:01:05:53.199
01:15:06.127 : en:01:15:06.127
01:25:14.026 : en:01:25:14.026
01:32:17.574 : en:01:32:17.574-
-Релиз от: -Автор релиза: -
[free-tor.com].t16464.torrent 
Торрент: Зарегистрирован [ 2018-08-08 12:25 ] · AA1EDA4FFA08167E564947F9F751353883282D3F

Скачать .torrent

Скачать .torrent

160 KB

Статус: проверено
.torrent скачан: 7 раз
Размер: 15,88 GB
Правила
Похожие темы
[Профиль] [ЛС]
Показать сообщения:    
Ответить на тему

Текущее время: 20-Авг 22:06

Часовой пояс: UTC + 4



Вы не можете начинать темы
Вы не можете отвечать на сообщения
Вы не можете редактировать свои сообщения
Вы не можете удалять свои сообщения
Вы не можете голосовать в опросах
Вы не можете прикреплять файлы к сообщениям
Вы можете скачивать файлы
Анализ веб сайтов Яндекс.Метрика Рейтинг@Mail.ru