Секса не будет!!! / Blockers (Кэй Кэннон) [2018, комедия, BDRemux 1080p от ExKinoRay | Лицензия]

Ответить на тему
Статистика раздачи [Обновить пиров]
Размер:  23,48 GB   |    Зарегистрирован:  4 месяца 5 дней   |    .torrent скачан:  3 раза
Сидов:  27  [  0 KB/s  ]   Личеров:  9  [  0 KB/s  ]   Подробная статистика пиров
 
   
 
 
Автор Сообщение

Skorp10n ®

Оффлайн

 Активный раздающий 1 Активный раздающий 2
 Активный релизер 1000 Активный релизер 1500 Активный релизер 2000 Активный релизер 250 Активный релизер 3000 Активный релизер 500 Активный релизер 5000 Активный релизер Фильмов (1000) Активный релизер Фильмов (300) Активный релизер Фильмов (600) Активный Форумчанин 1 Активный Форумчанин 2 Активный Форумчанин 3 Активный Форумчанин 4 Друг трекера Карма 1000 Карма 1500 Карма 500 Меценат Ни дня без новостей Орденосец 1 степени Орденосец 2 степени Орденосец 3 степени Почетный орденосец Почетный репортер С Новым 2016 Годом! С Новым 2017 Годом! С Новым 2018 Годом! Супер Мега Контер Квейк ТОП-10

Пол: Мужской

Стаж: 3 года 4 месяца

Наличие запрета:

Сообщений: 7719

Откуда: Казахстан, Караганда

Отдача: не определено

Загрузка: не определено

Нажми

Создавать темы 09-Авг-2018 11:33

[Цитировать]

Информация о фильме- Название: Секса не будет!!!
Оригинальное название: Blockers
Год выхода: 2018
Жанр: Комедия
Режиссер: Кэй Кэннон
В ролях: Лесли Манн, Айк Баринхолц, Джон Сина, Кэтрин Ньютон, Джина Гершон, Джун Рафаэль, Сарайю Рао, Гэри Коул, Грэм Филлипс, Хэннибал Бёресс- -О фильме: У трех подруг грандиозные планы на выпускной. Случайно об этом узнав, их родители решают во что бы то ни стало предотвратить непоправимое.-Страна: США
Студия: Point Grey Pictures, DMG Entertainment, Good Universe
Продолжительность: 01:41:56
Перевод: Дублированный| Лицензия-Качество: BDRemux 1080p
Видео: MPEG-4 AVC, 1920x1080, 28.8 Mbit/s, 23.976 fps
Звук:
Аудио #01: 48 kHz, DTS, 5., 768 Kbps | Лицензия | RUS |
Аудио #02: 48 kHz, DTS-HD MA, 5.1, 3362 Kbps | Оригинал | ENG |
Субтитры: Русские (full, forced), английские-

Скриншоты

--
-

MI

-General
Unique ID : 101644480397187581229713999765970047342 (0x4C7803CD11CBD6514B86E18074EF516E)
Complete name : D:Video111Blockers.2018.Lic.BDREMUX.1080p.ExKinoRay.mkv
Format : Matroska
Format version : Version 4 / Version 2
File size : 23.5 GiB
Duration : 1 h 41 min
Overall bit rate mode : Variable
Overall bit rate : 33.0 Mb/s
Movie name : Blockers 2018 720p from ExKinoRay
Encoded date : UTC 2018-08-08 15:49:31
Writing application : mkvmerge v23.0.0 ('The Bride Said No') 64-bit
Writing library : libebml v1.3.6 + libmatroska v1.4.9
Video
ID : 1
Format : AVC
Format/Info : Advanced Video Codec
Format profile : [email protected]
Format settings : CABAC / 4 Ref Frames
Format settings, CABAC : Yes
Format settings, ReFrames : 4 frames
Codec ID : V_MPEG4/ISO/AVC
Duration : 1 h 41 min
Bit rate mode : Variable
Bit rate : 28.8 Mb/s
Maximum bit rate : 35.0 Mb/s
Width : 1 920 pixels
Height : 1 080 pixels
Display aspect ratio : 16:9
Frame rate mode : Constant
Frame rate : 23.976 (24000/1001) FPS
Color space : YUV
Chroma subsampling : 4:2:0
Bit depth : 8 bits
Scan type : Progressive
Bits/(Pixel*Frame) : 0.580
Stream size : 20.5 GiB (87%)
Language : English
Default : Yes
Forced : No
Audio #1
ID : 2
Format : DTS
Format/Info : Digital Theater Systems
Codec ID : A_DTS
Duration : 1 h 41 min
Bit rate mode : Constant
Bit rate : 768 kb/s
Channel(s) : 6 channels
Channel positions : Front: L C R, Side: L R, LFE
Sampling rate : 48.0 kHz
Frame rate : 93.750 FPS (512 SPF)
Bit depth : 24 bits
Compression mode : Lossy
Stream size : 560 MiB (2%)
Title : Dub [Лицензия]
Language : Russian
Default : Yes
Forced : Yes
Audio #2
ID : 3
Format : DTS
Format/Info : Digital Theater Systems
Format profile : MA / Core
Codec ID : A_DTS
Duration : 1 h 41 min
Bit rate mode : Variable / Constant
Bit rate : 3 362 kb/s / 1 509 kb/s
Channel(s) : 6 channels
Channel positions : Front: L C R, Side: L R, LFE
Sampling rate : 48.0 kHz
Frame rate : 93.750 FPS (512 SPF)
Bit depth : 24 bits
Compression mode : Lossless / Lossy
Stream size : 2.39 GiB (10%)
Title : Original
Language : English
Default : No
Forced : No
Text #1
ID : 4
Format : UTF-8
Codec ID : S_TEXT/UTF8
Codec ID/Info : UTF-8 Plain Text
Duration : 1 h 40 min
Bit rate : 1 b/s
Count of elements : 33
Stream size : 1.26 KiB (0%)
Title : Forced
Language : Russian
Default : Yes
Forced : Yes
Text #2
ID : 5
Format : UTF-8
Codec ID : S_TEXT/UTF8
Codec ID/Info : UTF-8 Plain Text
Duration : 1 h 41 min
Bit rate : 111 b/s
Count of elements : 2039
Stream size : 82.6 KiB (0%)
Title : Full
Language : Russian
Default : No
Forced : No
Text #3
ID : 6
Format : UTF-8
Codec ID : S_TEXT/UTF8
Codec ID/Info : UTF-8 Plain Text
Duration : 1 h 41 min
Bit rate : 109 b/s
Count of elements : 2626
Stream size : 81.5 KiB (0%)
Language : English
Default : No
Forced : No
Menu
00:00:00.000 : en:00:00:00.000
00:02:50.087 : en:00:02:50.087
00:10:02.143 : en:00:10:02.143
00:14:50.139 : en:00:14:50.139
00:22:11.956 : en:00:22:11.956
00:26:09.109 : en:00:26:09.109
00:32:02.963 : en:00:32:02.963
00:35:18.450 : en:00:35:18.450
00:40:06.529 : en:00:40:06.529
00:44:33.546 : en:00:44:33.546
00:49:58.245 : en:00:49:58.245
00:55:14.770 : en:00:55:14.770
00:59:26.521 : en:00:59:26.521
01:05:34.472 : en:01:05:34.472
01:10:20.633 : en:01:10:20.633
01:15:47.001 : en:01:15:47.001
01:22:48.213 : en:01:22:48.213
01:26:38.819 : en:01:26:38.819
01:31:15.970 : en:01:31:15.970
01:34:08.560 : en:01:34:08.560-
-Релиз от: -Автор релиза: -
[free-tor.com].t16471.torrent 
Торрент: Зарегистрирован [ 2018-08-09 11:33 ] · 559DA10E1E27052501AC7B4CB2273D0FD257450C

Скачать .torrent

Скачать .torrent

236 KB

Статус: проверено
.torrent скачан: 3 раз
Размер: 23,48 GB
Правила
Похожие темы
[Профиль] [ЛС]
Показать сообщения:    
Ответить на тему

Текущее время: 14-Дек 15:56

Часовой пояс: UTC + 4



Вы не можете начинать темы
Вы не можете отвечать на сообщения
Вы не можете редактировать свои сообщения
Вы не можете удалять свои сообщения
Вы не можете голосовать в опросах
Вы не можете прикреплять файлы к сообщениям
Вы можете скачивать файлы
Анализ веб сайтов Яндекс.Метрика Рейтинг@Mail.ru