Логово Монстра / Bad Samaritan (Дин Девлин) [2018, ужасы, триллер, BDRip-AVC от ExKinoRay | iTunes]

Ответить на тему
Статистика раздачи [Обновить пиров]
Размер:  1,4 GB   |    Зарегистрирован:  2 месяца 11 дней   |    .torrent скачан:  4 раза
Сидов:  35  [  0 KB/s  ]   Личеров:  12  [  0 KB/s  ]   Подробная статистика пиров
 
   
 
 
Автор Сообщение

Skorp10n ®

Оффлайн

 Активный раздающий 1 Активный раздающий 2
 Активный релизер 1000 Активный релизер 1500 Активный релизер 2000 Активный релизер 250 Активный релизер 3000 Активный релизер 500 Активный релизер 5000 Активный релизер Фильмов (300) Активный релизер Фильмов (600) Активный Форумчанин 1 Активный Форумчанин 2 Активный Форумчанин 3 Активный Форумчанин 4 Друг трекера Карма 1000 Карма 1500 Карма 500 Меценат Ни дня без новостей Орденосец 1 степени Орденосец 2 степени Орденосец 3 степени Почетный орденосец Почетный репортер С Новым 2016 Годом! С Новым 2017 Годом! С Новым 2018 Годом! Супер Мега Контер Квейк ТОП-10

Пол: Мужской

Стаж: 3 года 2 месяца

Наличие запрета:

Сообщений: 6753

Откуда: Казахстан, Караганда

Отдача: не определено

Загрузка: не определено

Нажми

Создавать темы 09-Авг-2018 11:47

[Цитировать]

Информация о фильме- Название: Логово Монстра
Оригинальное название: Bad Samaritan
Год выпуска: 2018
Жанр: Ужасы, триллер
Режиссер: Дин Девлин
В ролях: Дэвид Теннант, Керри Кондон, Роберт Шиэн, Жаклин Байерс, Лиза Бреннер, Ханна Бэйрфут, Карлито Оливеро, Роб Нэгл, Дэна Милликэн, Тони Дуп-О фильме: -Двое парней, работая парковщиками у элитного ресторана, успешно обчищают дома богатых посетителей, пока те наслаждаются изысканной кухней. Но однажды, вломившись в чужой особняк, кроме роскошной добычи они обнаруживают истерзанную пленницу. Пытаясь спасти девушку, они сами все глубже попадают в западню жестокого монстра.- -Страна: США
Студия: Electric Entertainment
Продолжительность: 01:50:10
Перевод: Дублированный | iTunes
Субтитры: Английские-Формат: MKV
Качество: BDRip-AVC
Видео: MPEG-4 AVC, 720x302 (2.40:1), 23.976 fps, 1433 Kbps, 0.275 bit/pixel
Аудио: 48 kHz, AC3, 5/1, 384 Kbps | RUS | -

МИ

-General
Unique ID : 202357187829475895874157995073721048527 (0x983C93A5E7FDF2C1A5165BA1452F9DCF)
Complete name : D:Bad Samaritan.2018.BDRip.AVC.ExKinoRay.mkv
Format : Matroska
Format version : Version 2
File size : 1.40 GiB
Duration : 1 h 50 min
Overall bit rate : 1 819 kb/s
Movie name : Bad Samaritan 2018 from ExKinoRay
Encoded date : UTC 2018-08-08 23:50:35
Writing application : mkvmerge v5.6.0 ('Kenya Kane') built on May 27 2012 16:44:04
Writing library : libebml v1.2.3 + libmatroska v1.3.0
Video
ID : 1
Format : AVC
Format/Info : Advanced Video Codec
Format profile : [email protected]
Format settings, CABAC : Yes
Format settings, ReFrames : 12 frames
Codec ID : V_MPEG4/ISO/AVC
Duration : 1 h 50 min
Bit rate : 1 433 kb/s
Width : 720 pixels
Height : 302 pixels
Display aspect ratio : 2.40:1
Frame rate mode : Constant
Frame rate : 23.976 (24000/1001) FPS
Original frame rate : 23.976 (23976/1000) FPS
Color space : YUV
Chroma subsampling : 4:2:0
Bit depth : 8 bits
Scan type : Progressive
Bits/(Pixel*Frame) : 0.275
Stream size : 1.08 GiB (77%)
Title : Enigma
Writing library : x264 core 152 r2851 ba24899
Encoding settings : cabac=1 / ref=12 / deblock=1:-2:-2 / analyse=0x3:0x113 / me=umh / subme=11 / psy=1 / psy_rd=1.00:0.05 / mixed_ref=1 / me_range=32 / chroma_me=1 / trellis=2 / 8x8dct=1 / cqm=0 / deadzone=21,11 / fast_pskip=0 / chroma_qp_offset=-3 / threads=9 / lookahead_threads=2 / sliced_threads=0 / nr=0 / decimate=0 / interlaced=0 / bluray_compat=0 / constrained_intra=0 / bframes=10 / b_pyramid=2 / b_adapt=2 / b_bias=0 / direct=3 / weightb=1 / open_gop=0 / weightp=2 / keyint=240 / keyint_min=23 / scenecut=40 / intra_refresh=0 / rc_lookahead=40 / rc=2pass / mbtree=0 / bitrate=1433 / ratetol=1.0 / qcomp=0.60 / qpmin=0 / qpmax=51 / qpstep=4 / cplxblur=20.0 / qblur=0.5 / vbv_maxrate=50000 / vbv_bufsize=62500 / nal_hrd=none / filler=0 / ip_ratio=1.30 / pb_ratio=1.20 / aq=3:0.80
Default : Yes
Forced : No
Color range : Limited
Color primaries : BT.709
Transfer characteristics : BT.709
Matrix coefficients : BT.709
Audio
ID : 2
Format : AC-3
Format/Info : Audio Coding 3
Mode extension : CM (complete main)
Format settings, Endianness : Big
Codec ID : A_AC3
Duration : 1 h 50 min
Bit rate mode : Constant
Bit rate : 384 kb/s
Channel(s) : 6 channels
Channel positions : Front: L C R, Side: L R, LFE
Sampling rate : 48.0 kHz
Frame rate : 31.250 FPS (1536 spf)
Compression mode : Lossy
Stream size : 303 MiB (21%)
Title : iTunes
Language : Russian
Default : Yes
Forced : No
Text
ID : 3
Format : UTF-8
Codec ID : S_TEXT/UTF8
Codec ID/Info : UTF-8 Plain Text
Language : English
Default : No
Forced : No
Menu
00:00:00.000 : :Глава 1
00:10:04.771 : :Глава 2
00:20:55.296 : :Глава 3
00:31:24.674 : :Глава 4
00:42:03.980 : :Глава 5
00:52:32.900 : :Глава 6
01:03:13.415 : :Глава 7
01:13:42.418 : :Глава 8
01:24:20.430 : :Глава 9
01:34:57.233 : :Глава 10
01:44:45.696 : :Глава 11-
-

Скриншоты

--
-Релиз от: -Автор релиза: -
[free-tor.com].t16473.torrent 
Торрент: Зарегистрирован [ 2018-08-09 11:47 ] · 620C4EDFB72CB6F7455D1719DA469F36D43302D6

Скачать .torrent

Скачать .torrent

15 KB

Статус: проверено
.torrent скачан: 4 раз
Размер: 1,4 GB
Правила
Похожие темы
[Профиль] [ЛС]
Показать сообщения:    
Ответить на тему

Текущее время: 21-Окт 05:22

Часовой пояс: UTC + 4



Вы не можете начинать темы
Вы не можете отвечать на сообщения
Вы не можете редактировать свои сообщения
Вы не можете удалять свои сообщения
Вы не можете голосовать в опросах
Вы не можете прикреплять файлы к сообщениям
Вы можете скачивать файлы
Анализ веб сайтов Яндекс.Метрика Рейтинг@Mail.ru