Суперполицейские 2 / Super Troopers 2 (Джей Чандрашекхар) [2018, комедия, криминал, детектив, BDRip | iTunes]

Ответить на тему
Статистика раздачи [Обновить пиров]
Размер:  1,47 GB   |    Зарегистрирован:  10 дней   |    .torrent скачан:  5 раз
Сидов:  111  [  0 KB/s  ]   Личеров:  6  [  0 KB/s  ]   Подробная статистика пиров
 
   
 
 
Автор Сообщение

Skorp10n ®

Онлайн

 Активный раздающий 1 Активный раздающий 2
 Активный релизер 1000 Активный релизер 1500 Активный релизер 2000 Активный релизер 250 Активный релизер 3000 Активный релизер 500 Активный релизер 5000 Активный релизер Фильмов (300) Активный релизер Фильмов (600) Активный Форумчанин 1 Активный Форумчанин 2 Активный Форумчанин 3 Активный Форумчанин 4 Друг трекера Карма 1000 Карма 1500 Карма 500 Меценат Ни дня без новостей Орденосец 1 степени Орденосец 2 степени Орденосец 3 степени Почетный орденосец Почетный репортер С Новым 2016 Годом! С Новым 2017 Годом! С Новым 2018 Годом! Супер Мега Контер Квейк ТОП-10

Пол: Мужской

Стаж: 3 года

Наличие запрета:

Сообщений: 6112

Откуда: Казахстан, Караганда

Отдача: не определено

Загрузка: не определено

Нажми

Создавать темы 10-Авг-2018 16:52

[Цитировать]

Информация о фильме- Название: Суперполицейские 2
Оригинальное название: Super Troopers 2
Год выхода: 2018
Жанр: Комедия, криминал, детектив
Страна: США
Перевод: Профессиональный (многоголосый, закадровый) | iTunes
Продолжительность: 01:39:30
Режиссер: Джей Чандрашекхар
В ролях: Шонн Уильям Скотт, Клифтон Коллинз мл., Стив Лемми, Эрик Столханске, Джей Чандрашекхар, Пол Сотер, Дэймон Уайанс мл., Кевин Хеффернан, Брайан Кокс, Мариса Кохлан и др.-О фильме: Фильм расскажет о безалаберных дорожных патрульных из маленького городка на границе США и Канады. Чтобы навести порядок на пограничной дороге и разрешить международный конфликт, пятёрка суперполицейских вынуждена сотрудничать со своими невыносимыми канадскими коллегами.- -Файл-Формат: AVI
Качество: BDRip
Видео: Xvid, 720x384, ~1515 kbps, 23,976 fps
Звук#1: русский, AC3, 5.1, 48 kHz, 384 kbps | iTunes
Звук#2: украинский, AC3, 2.0, 48 kHz, 192 kbps | Дубляж iTunes
Субтитры: нет-

MI

-General
Полное имя : F:TorrentSuperTroopers2BDRip.avi
Формат : AVI
Формат/Информация : Audio Video Interleave
Профиль формата : OpenDML
Размер файла : 1.47 GiB
Продолжительность : 1 h 39 min
Общий поток : 2 109 kb/s
Программа кодирования : XviD4PSP 6.0 / 54.27.101
Video
Идентификатор : 0
Формат : MPEG-4 Visual
Профиль формата : Advanced [email protected]
Настройки формата : BVOP2 / Custom Matrix
Параметр BVOP формата : 2
Параметр QPel формата : No
Параметр GMC формата : No warppoints
Параметр матрицы формата : Custom
Идентификатор кодека : XVID
Идентификатор кодека/Подсказка : XviD
Продолжительность : 1 h 39 min
Битрейт : 1 515 kb/s
Ширина : 720 pixels
Высота : 384 pixels
Соотношение сторон : 1.85:1
Частота кадров : 23.976 (23976/1000) FPS
Цветовое пространство : YUV
Субдискретизация насыщенности : 4:2:0
Битовая глубина : 8 bits
Тип развёртки : Progressive
Метод сжатия : Lossy
Бит/(Пиксели*Кадры) : 0.229
Размер потока : 1.05 GiB (72%)
Библиотека кодирования : XviD 67
Audio #1
Идентификатор : 1
Формат : AC-3
Формат/Информация : Audio Coding 3
Идентификатор кодека : 2000
Продолжительность : 1 h 39 min
Вид битрейта : Constant
Битрейт : 384 kb/s
Каналы : 6 channels
Расположение каналов : Front: L C R, Side: L R, LFE
Частота : 48.0 kHz
Частота кадров : 31.250 FPS (1536 SPF)
Битовая глубина : 16 bits
Метод сжатия : Lossy
Размер потока : 273 MiB (18%)
Выравнивание : Aligned on interleaves
Продолжительность промежутка : 32 ms (0.77 video frame)
Audio #2
Идентификатор : 2
Формат : AC-3
Формат/Информация : Audio Coding 3
Идентификатор кодека : 2000
Продолжительность : 1 h 39 min
Вид битрейта : Constant
Битрейт : 192 kb/s
Каналы : 2 channels
Расположение каналов : Front: L R
Частота : 48.0 kHz
Частота кадров : 31.250 FPS (1536 SPF)
Битовая глубина : 16 bits
Метод сжатия : Lossy
Размер потока : 137 MiB (9%)
Выравнивание : Aligned on interleaves
Продолжительность промежутка : 32 ms (0.77 video frame)-
-

Скриншоты

--
-
[free-tor.com].t16489.torrent 
Торрент: Зарегистрирован [ 2018-08-10 16:52 ] · B1B38DBCB7DC1F8EBB060E9154C0131AC2561B1C

Скачать .torrent

Скачать .torrent

16 KB

Статус: проверено
.torrent скачан: 5 раз
Размер: 1,47 GB
Правила
Похожие темы
[Профиль] [ЛС]
Показать сообщения:    
Ответить на тему

Текущее время: 20-Авг 22:08

Часовой пояс: UTC + 4



Вы не можете начинать темы
Вы не можете отвечать на сообщения
Вы не можете редактировать свои сообщения
Вы не можете удалять свои сообщения
Вы не можете голосовать в опросах
Вы не можете прикреплять файлы к сообщениям
Вы можете скачивать файлы
Анализ веб сайтов Яндекс.Метрика Рейтинг@Mail.ru