Суперполицейские 2 / Super Troopers 2 (Джей Чандрашекхар) [2018, комедия, криминал, детектив, BDRip 720p | iTunes]

Ответить на тему
Статистика раздачи [Обновить пиров]
Размер:  5,36 GB   |    Зарегистрирован:  2 месяца 10 дней   |    .torrent скачан:  4 раза
Сидов:  133  [  0 KB/s  ]   Личеров:  9  [  0 KB/s  ]   Подробная статистика пиров
 
   
 
 
Автор Сообщение

Skorp10n ®

Оффлайн

 Активный раздающий 1 Активный раздающий 2
 Активный релизер 1000 Активный релизер 1500 Активный релизер 2000 Активный релизер 250 Активный релизер 3000 Активный релизер 500 Активный релизер 5000 Активный релизер Фильмов (300) Активный релизер Фильмов (600) Активный Форумчанин 1 Активный Форумчанин 2 Активный Форумчанин 3 Активный Форумчанин 4 Друг трекера Карма 1000 Карма 1500 Карма 500 Меценат Ни дня без новостей Орденосец 1 степени Орденосец 2 степени Орденосец 3 степени Почетный орденосец Почетный репортер С Новым 2016 Годом! С Новым 2017 Годом! С Новым 2018 Годом! Супер Мега Контер Квейк ТОП-10

Пол: Мужской

Стаж: 3 года 2 месяца

Наличие запрета:

Сообщений: 6753

Откуда: Казахстан, Караганда

Отдача: не определено

Загрузка: не определено

Нажми

Создавать темы 10-Авг-2018 16:52

[Цитировать]

Информация о фильме- Название: Суперполицейские 2
Оригинальное название: Super Troopers 2
Год выхода: 2018
Жанр: Комедия, криминал, детектив
Страна: США
Перевод: Профессиональный (многоголосый, закадровый) | iTunes
Продолжительность: 01:39:30
Режиссер: Джей Чандрашекхар
В ролях: Шонн Уильям Скотт, Клифтон Коллинз мл., Стив Лемми, Эрик Столханске, Джей Чандрашекхар, Пол Сотер, Дэймон Уайанс мл., Кевин Хеффернан, Брайан Кокс, Мариса Кохлан и др.-О фильме: Фильм расскажет о безалаберных дорожных патрульных из маленького городка на границе США и Канады. Чтобы навести порядок на пограничной дороге и разрешить международный конфликт, пятёрка суперполицейских вынуждена сотрудничать со своими невыносимыми канадскими коллегами.- -Файл-Формат: MKV
Качество: BDRip 720p
Видео: MPEG-4 AVC, 1280x692, 6500 kbps, 23,976 fps
Звук#1: русский, AC3, 5.1, 48 kHz, 384 kbps | iTunes
Звук#2: украинский, AC3, 2.0, 48 kHz, 192 kbps | Дубляж iTunes
Звук#3: английский, AC3, 5.1, 48 kHz, 640 kbps | оригинал
Субтитры: русские, украинские, английские-

MI

-General
Уникальный идентификатор : 229054121646678152997487342474094760307 (0xAC52381BF2E6F35F993362BB19D4D173)
Полное имя : F:TorrentSuperTroopers2BDRip720p.mkv
Формат : Matroska
Версия формата : Version 4 / Version 2
Размер файла : 5.36 GiB
Продолжительность : 1 h 39 min
Общий поток : 7 715 kb/s
Дата кодирования : UTC 2018-08-10 08:29:43
Программа кодирования : mkvmerge v9.5.0 ('Quiet Fire') 64bit
Библиотека кодирования : libebml v1.3.4 + libmatroska v1.4.5
Video
Идентификатор : 1
Формат : AVC
Формат/Информация : Advanced Video Codec
Профиль формата : [email protected]
Настройки формата : CABAC / 9 Ref Frames
Параметр CABAC формата : Yes
Параметр RefFrames формата : 9 frames
Идентификатор кодека : V_MPEG4/ISO/AVC
Продолжительность : 1 h 39 min
Битрейт : 6 500 kb/s
Ширина : 1 280 pixels
Высота : 692 pixels
Соотношение сторон : 1.85:1
Режим частоты кадров : Constant
Частота кадров : 23.976 (24000/1001) FPS
Цветовое пространство : YUV
Субдискретизация насыщенности : 4:2:0
Битовая глубина : 8 bits
Тип развёртки : Progressive
Бит/(Пиксели*Кадры) : 0.306
Размер потока : 4.52 GiB (84%)
Библиотека кодирования : x264 core 155 r2901M 7d0ff22
Настройки программы : cabac=1 / ref=9 / deblock=1:-3:-3 / analyse=0x3:0x133 / me=umh / subme=11 / psy=1 / psy_rd=1.00:0.00 / mixed_ref=1 / me_range=48 / chroma_me=1 / trellis=2 / 8x8dct=1 / cqm=0 / deadzone=21,11 / fast_pskip=0 / chroma_qp_offset=-2 / threads=9 / lookahead_threads=2 / sliced_threads=0 / nr=0 / decimate=0 / interlaced=0 / bluray_compat=0 / constrained_intra=0 / bframes=12 / b_pyramid=2 / b_adapt=2 / b_bias=0 / direct=3 / weightb=1 / open_gop=0 / weightp=2 / keyint=240 / keyint_min=3 / scenecut=40 / intra_refresh=0 / rc_lookahead=120 / rc=2pass / mbtree=0 / bitrate=6500 / ratetol=1.0 / qcomp=0.70 / qpmin=0 / qpmax=69 / qpstep=4 / cplxblur=20.0 / qblur=0.5 / vbv_maxrate=50000 / vbv_bufsize=62500 / nal_hrd=none / filler=0 / ip_ratio=1.40 / pb_ratio=1.30 / aq=3:0.80
Язык : English
Default : Yes
Forced : No
Audio #1
Идентификатор : 2
Формат : AC-3
Формат/Информация : Audio Coding 3
Идентификатор кодека : A_AC3
Продолжительность : 1 h 39 min
Вид битрейта : Constant
Битрейт : 384 kb/s
Каналы : 6 channels
Расположение каналов : Front: L C R, Side: L R, LFE
Частота : 48.0 kHz
Частота кадров : 31.250 FPS (1536 SPF)
Битовая глубина : 16 bits
Метод сжатия : Lossy
Размер потока : 273 MiB (5%)
Язык : Russian
Default : Yes
Forced : No
Audio #2
Идентификатор : 3
Формат : AC-3
Формат/Информация : Audio Coding 3
Идентификатор кодека : A_AC3
Продолжительность : 1 h 39 min
Вид битрейта : Constant
Битрейт : 192 kb/s
Каналы : 2 channels
Расположение каналов : Front: L R
Частота : 48.0 kHz
Частота кадров : 31.250 FPS (1536 SPF)
Битовая глубина : 16 bits
Метод сжатия : Lossy
Размер потока : 137 MiB (2%)
Язык : Ukrainian
Default : No
Forced : No
Audio #3
Идентификатор : 4
Формат : AC-3
Формат/Информация : Audio Coding 3
Идентификатор кодека : A_AC3
Продолжительность : 1 h 39 min
Вид битрейта : Constant
Битрейт : 640 kb/s
Каналы : 6 channels
Расположение каналов : Front: L C R, Side: L R, LFE
Частота : 48.0 kHz
Частота кадров : 31.250 FPS (1536 SPF)
Битовая глубина : 16 bits
Метод сжатия : Lossy
Размер потока : 456 MiB (8%)
Язык : English
Default : No
Forced : No
Text #1
Идентификатор : 5
Формат : UTF-8
Идентификатор кодека : S_TEXT/UTF8
Идентификатор кодека/Информация : UTF-8 Plain Text
Продолжительность : 1 h 38 min
Битрейт : 119 b/s
ElementCount : 1801
Размер потока : 86.1 KiB (0%)
Язык : Russian
Default : No
Forced : No
Text #2
Идентификатор : 6
Формат : UTF-8
Идентификатор кодека : S_TEXT/UTF8
Идентификатор кодека/Информация : UTF-8 Plain Text
Продолжительность : 1 h 37 min
Битрейт : 130 b/s
ElementCount : 1803
Размер потока : 93.2 KiB (0%)
Язык : Ukrainian
Default : No
Forced : No
Text #3
Идентификатор : 7
Формат : UTF-8
Идентификатор кодека : S_TEXT/UTF8
Идентификатор кодека/Информация : UTF-8 Plain Text
Продолжительность : 1 h 38 min
Битрейт : 97 b/s
ElementCount : 2247
Размер потока : 70.4 KiB (0%)
Язык : English
Default : No
Forced : No
Menu
00:00:00.000 : :00:00:00.000
00:05:15.398 : :00:05:15.398
00:09:08.757 : :00:09:08.757
00:12:43.012 : :00:12:43.012
00:16:12.972 : :00:16:12.972
00:22:11.956 : :00:22:11.956
00:26:35.552 : :00:26:35.552
00:29:48.620 : :00:29:48.620
00:33:19.956 : :00:33:19.956
00:36:33.608 : :00:36:33.608
00:40:04.527 : :00:40:04.527
00:43:10.880 : :00:43:10.880
00:46:35.209 : :00:46:35.209
00:51:43.142 : :00:51:43.142
00:55:46.802 : :00:55:46.802
01:01:09.207 : :01:01:09.207
01:04:57.018 : :01:04:57.018
01:07:07.065 : :01:07:07.065
01:11:33.247 : :01:11:33.247
01:14:53.531 : :01:14:53.531
01:17:32.523 : :01:17:32.523
01:22:55.137 : :01:22:55.137
01:26:08.622 : :01:26:08.622
01:28:43.902 : :01:28:43.902-
-

Скриншоты

--
-
[free-tor.com].t16490.torrent 
Торрент: Зарегистрирован [ 2018-08-10 16:52 ] · EE7B69886CBA45AED2E49B2A5295D153734D1762

Скачать .torrent

Скачать .torrent

14 KB

Статус: проверено
.torrent скачан: 4 раз
Размер: 5,36 GB
Правила
Похожие темы
[Профиль] [ЛС]
Показать сообщения:    
Ответить на тему

Текущее время: 21-Окт 05:26

Часовой пояс: UTC + 4



Вы не можете начинать темы
Вы не можете отвечать на сообщения
Вы не можете редактировать свои сообщения
Вы не можете удалять свои сообщения
Вы не можете голосовать в опросах
Вы не можете прикреплять файлы к сообщениям
Вы можете скачивать файлы
Анализ веб сайтов Яндекс.Метрика Рейтинг@Mail.ru