Парни из роты С / Парни из третьей роты / The Boys in Company C (Сидни Дж. Фьюри) [1978, драма, военный, BDRip 1080p от ExKinoRay | A]

Ответить на тему
Статистика раздачи [Обновить пиров]
Размер:  12,68 GB   |    Зарегистрирован:  2 месяца 3 дня   |    .torrent скачан:  15 раз
Сидов:  6  [  0 KB/s  ]   Подробная статистика пиров
 
   
 
 
Автор Сообщение

Skorp10n ®

Онлайн

 Активный раздающий 1 Активный раздающий 2
 Активный релизер 1000 Активный релизер 1500 Активный релизер 2000 Активный релизер 250 Активный релизер 3000 Активный релизер 500 Активный релизер 5000 Активный релизер Фильмов (300) Активный релизер Фильмов (600) Активный Форумчанин 1 Активный Форумчанин 2 Активный Форумчанин 3 Активный Форумчанин 4 Друг трекера Карма 1000 Карма 1500 Карма 500 Меценат Ни дня без новостей Орденосец 1 степени Орденосец 2 степени Орденосец 3 степени Почетный орденосец Почетный репортер С Новым 2016 Годом! С Новым 2017 Годом! С Новым 2018 Годом! Супер Мега Контер Квейк ТОП-10

Пол: Мужской

Стаж: 3 года 3 месяца

Наличие запрета:

Сообщений: 7209

Откуда: Казахстан, Караганда

Отдача: не определено

Загрузка: не определено

Нажми

Создавать темы 12-Сен-2018 14:48

[Цитировать]

Информация о фильме- Название: Парни из роты С (Парни из третьей роты)
Оригинальное название: The Boys in Company C
Год выхода: 1978
Жанр: Драма, военный
Режиссер: Сидни Дж. Фьюри
В ролях: Стэн Шоу, Эндрю Стивенс, Джеймс Каннинг, Майкл Лембек, Крейг Уоссон, Скотт Хайлендс, Джеймс Уитмор мл., Ноубл Уиллингэм, Р. Ли Эрми, Сантос Моралес-О фильме:-Военная драма изображает жизни пяти американских морских пехотинцев, начиная с их тренировок в учебном лагере для новобранцев в 1967 и заканчивая наступлением на Вьетнам в 1968. Их жизни быстро превратились в адский кошмар. Внутренне сломленные из-за бессмысленной войны, напуганные беспринципностью их союзника — Южного Вьетнама — и постоянно подвергающиеся опасности из-за их же собственного командира, молодые люди нашли возможный выход из этой ситуации. Им сказали, что если они нарочно проиграют в футбол команде Южного Вьетнама, то они смогут провести остаток войны, играя показательные игры за линией фронта. Тем не менее, как они вскоре узнали, во Вьетнаме все оказывается не таким простым, каким кажется поначалу.--Выпущено: Гонконг, США, Golden Harvest Company Ltd., Good Times Films S.A.
Продолжительность: 02:06:29
Перевод: Авторский-Файл-Кодек: x264
Качество: BDRip 1080p
Видео: MPEG-4 AVC, 10.9 Мбит/с, 1920x818
Звук №1: Русский | DTS-MA, 2 ch, 1768 Кбит/с | Авторский (М.Яроцкий) - Ненормативная лексика
Звук №2: Русский | AC3, 2 ch, 192 Кбит/с | Авторский (С. Визгунов)
Звук №3: Английский | DTS, 2 ch, 1536 Кбит/с | Оригинал
Субтитры: Английские-

Скриншоты

--
-

Инфо-файл

-Формат : Matroska
Версия формата : Version 2
Размер файла : 12,7 Гбайт
Продолжительность : 2 ч. 6 м.
Режим общего битрейта : Переменный
Общий поток : 14,4 Мбит/сек
Название фильма : The.Boys.in.Company.C.1978.BDRip.1080p.zzZGVvv
Дата кодирования : UTC 2018-09-10 02:34:50
Программа кодирования : mkvmerge v5.8.0 ('No Sleep / Pillow') built on Sep 2 2012 15:37:04
Библиотека кодирования : libebml v1.2.3 + libmatroska v1.3.0
Attachements : cover.jpg
Видео
Идентификатор : 1
Формат : AVC
Формат/Информация : Advanced Video Codec
Профиль формата : [email protected]
Параметр CABAC формата : Да
Параметр ReFrames формата : 4 кадра
Идентификатор кодека : V_MPEG4/ISO/AVC
Продолжительность : 2 ч. 6 м.
Номинальный битрейт : 10,9 Мбит/сек
Ширина : 1920 пикселей
Высота : 818 пикселей
Соотношение сторон : 2,35:1
Режим частоты кадров : Постоянный
Частота кадров : 23,976 кадра/сек
Цветовое пространство : YUV
Субдискретизация насыщенности : 4:2:0
Битовая глубина : 8 бит
Тип развёртки : Прогрессивная
Бит/(Пиксели*Кадры) : 0.289
Библиотека кодирования : x264 core 120 r2120 0c7dab9
Настройки программы : cabac=1 / ref=4 / deblock=1:-2:-2 / analyse=0x3:0x113 / me=umh / subme=10 / psy=1 / psy_rd=1.20:0.20 / mixed_ref=1 / me_range=32 / chroma_me=1 / trellis=2 / 8x8dct=1 / cqm=0 / deadzone=21,11 / fast_pskip=0 / chroma_qp_offset=-3 / threads=6 / sliced_threads=0 / nr=0 / decimate=0 / interlaced=0 / bluray_compat=0 / constrained_intra=0 / bframes=5 / b_pyramid=2 / b_adapt=2 / b_bias=0 / direct=3 / weightb=1 / open_gop=0 / weightp=2 / keyint=250 / keyint_min=2 / scenecut=40 / intra_refresh=0 / rc_lookahead=72 / rc=2pass / mbtree=1 / bitrate=10871 / ratetol=1.0 / qcomp=0.60 / qpmin=10 / qpmax=51 / qpstep=4 / cplxblur=20.0 / qblur=0.5 / vbv_maxrate=38000 / vbv_bufsize=38000 / nal_hrd=none / ip_ratio=1.40 / aq=1:1.00
Язык : English
Default : Да
Forced : Нет
Аудио #1
Идентификатор : 2
Формат : DTS
Формат/Информация : Digital Theater Systems
Профиль формата : MA / Core
Режим : 16
Параметр Endianness формата : Big
Идентификатор кодека : A_DTS
Продолжительность : 2 ч. 6 м.
Вид битрейта : Переменный
Битрейт : Неизвестно / 1509 Кбит/сек
Каналы : 2 канала
Расположение каналов : Front: L R
Частота : 48,0 КГц
Битовая глубина : 16 бит
Метод сжатия : Без потерь / Lossy
Заголовок : AVO [М.Яроцкий]
Язык : Russian
Default : Да
Forced : Нет
Аудио #2
Идентификатор : 3
Формат : AC-3
Формат/Информация : Audio Coding 3
Расширение режима : CM (complete main)
Параметр Endianness формата : Big
Идентификатор кодека : A_AC3
Продолжительность : 2 ч. 6 м.
Вид битрейта : Постоянный
Битрейт : 192 Кбит/сек
Каналы : 2 канала
Расположение каналов : Front: L R
Частота : 48,0 КГц
Метод сжатия : С потерями
Размер потока : 174 Мбайт (1%)
Заголовок : AVO [С. Визгунов]
Язык : Russian
Default : Нет
Forced : Нет
Аудио #3
Идентификатор : 4
Формат : DTS
Формат/Информация : Digital Theater Systems
Режим : 16
Параметр Endianness формата : Big
Идентификатор кодека : A_DTS
Продолжительность : 2 ч. 6 м.
Вид битрейта : Постоянный
Битрейт : 1509 Кбит/сек
Каналы : 2 канала
Расположение каналов : Front: L R
Частота : 48,0 КГц
Битовая глубина : 24 бит
Метод сжатия : С потерями
Размер потока : 1,33 Гбайт (11%)
Язык : English
Default : Нет
Forced : Нет
Текст
Идентификатор : 5
Формат : UTF-8
Идентификатор кодека : S_TEXT/UTF8
Идентификатор кодека/Информация : UTF-8 Plain Text
Язык : English
Default : Нет
Forced : Нет
Меню
00:00:00.000 : en:Start
00:09:37.911 : en:Boot Camp
00:19:47.061 : en:War Game
00:32:00.877 : en:We're Good
00:43:42.328 : en:Convoy
00:55:32.412 : en:Happy Birthday
01:07:25.375 : en:Minefiled
01:19:16.502 : en:Body Count
01:32:23.830 : en:Hit the Beach
01:44:34.268 : en:Soccer Game
01:56:26.813 : en:Heroes
02:04:18.368 : en:End Credits-
-Релиз от: -
[free-tor.com].t16819.torrent 
Торрент: Зарегистрирован [ 2018-09-12 14:48 ] · FE83E0EC6A982D314B30C49AEDB4CA92C08044E0

Скачать .torrent

Скачать .torrent

64 KB

Статус: проверено
.torrent скачан: 15 раз
Размер: 12,68 GB
Правила
Похожие темы
[Профиль] [ЛС]
Показать сообщения:    
Ответить на тему

Текущее время: 16-Ноя 07:45

Часовой пояс: UTC + 4



Вы не можете начинать темы
Вы не можете отвечать на сообщения
Вы не можете редактировать свои сообщения
Вы не можете удалять свои сообщения
Вы не можете голосовать в опросах
Вы не можете прикреплять файлы к сообщениям
Вы можете скачивать файлы
Анализ веб сайтов Яндекс.Метрика Рейтинг@Mail.ru