Женитьба Бальзаминова (Константин Воинов) [1964, комедия, HDDVDRip 720p от ExKinoRay]

Ответить на тему
Статистика раздачи [Обновить пиров]
Размер:  4,24 GB   |    Зарегистрирован:  2 месяца 3 дня   |    .torrent скачан:  6 раз
Сидов:  21  [  0 KB/s  ]   Подробная статистика пиров
 
   
 
 
Автор Сообщение

Skorp10n ®

Оффлайн

 Активный раздающий 1 Активный раздающий 2
 Активный релизер 1000 Активный релизер 1500 Активный релизер 2000 Активный релизер 250 Активный релизер 3000 Активный релизер 500 Активный релизер 5000 Активный релизер Фильмов (300) Активный релизер Фильмов (600) Активный Форумчанин 1 Активный Форумчанин 2 Активный Форумчанин 3 Активный Форумчанин 4 Друг трекера Карма 1000 Карма 1500 Карма 500 Меценат Ни дня без новостей Орденосец 1 степени Орденосец 2 степени Орденосец 3 степени Почетный орденосец Почетный репортер С Новым 2016 Годом! С Новым 2017 Годом! С Новым 2018 Годом! Супер Мега Контер Квейк ТОП-10

Пол: Мужской

Стаж: 3 года 3 месяца

Наличие запрета:

Сообщений: 7209

Откуда: Казахстан, Караганда

Отдача: не определено

Загрузка: не определено

Нажми

Создавать темы 12-Сен-2018 14:57

[Цитировать]

Информация о фильме- Название: Женитьба Бальзаминова
Год выхода: 1964
Жанр: Комедия
Режиссер: Константин Воинов
В ролях: Георгий Вицин, Людмила Шагалова, Лидия Смирнова, Екатерина Савинова, Жанна Прохоренко, Людмила Гурченко, Тамара Носова, Николай Крючков, Ролан Быков, Инна Макарова, Надежда Румянцева, Татьяна Конюхова, Нонна Мордюкова, Григорий Шпигель, Геннадий Донягин, Вадим Завьялов, Алексей Коняшин, Виктор Лазарев, Анатолий Ларионов, Филимон Сергеев, Михаил Суворов, Анатолий Обухов, Наталья Крачковская-О фильме:-По мотивам трилогии А. Н. Островского "Праздничный сон до обеда", "За чем пойдешь, то и найдешь", "Две собаки дерутся - третья не приставай". Мелкий чиновник Бальзаминов мечтает жениться - и обязательно на богатой. Забавные ситуации, в которых то и дело оказываются герой, пытающийся найти невесту, составляют сюжет одной из популярнейших отечественных кинолент.-Страна: СССР, Мосфильм
Продолжительность: 01:24:40
Перевод: не требуется-Файл-Кодек: x264
Качество: HDDVDRip 720p - Custom
Видео: MPEG-4 AVC, 6500 Кбит/с, 964x720
Звук: AC3, 6 ch, 448 Кбит/с, AC3, 1 ch, 224 Кбит/с-

Скриншоты

--
-

Медиа-Инфо

-raw [info]: 964x720p 1:1 @ 25/1 fps (cfr)
x264 [info]: using SAR=1/1
x264 [info]: using cpu capabilities: MMX2 SSE2Fast SSSE3 SSE4.2 AVX
x264 [info]: profile High, level 4.1
x264 [info]: frame I:617 Avg QP:15.93 size:160933
x264 [info]: frame P:46271 Avg QP:19.18 size: 58258
x264 [info]: frame B:80135 Avg QP:20.31 size: 16651
=============================================================================================================
Общее
Уникальный идентификатор : 247270305265199509220453116384030102790 (0xBA06874D8851DFD3BD2F4C9965161506)
Полное имя : D:Женитьба Бальзаминова_1964-HDDVDRip 720p.mkv
Формат : Matroska
Версия формата : Version 2
Размер файла : 4,24 Гбайт
Продолжительность : 1 ч. 24 м.
Общий поток : 7176 Кбит/сек
Дата кодирования : UTC 2015-12-18 13:20:49
Программа кодирования : mkvmerge v5.8.0 ('No Sleep / Pillow') built on Sep 2 2012 15:37:04
Библиотека кодирования : libebml v1.2.3 + libmatroska v1.3.0
Видео
Идентификатор : 1
Формат : AVC
Формат/Информация : Advanced Video Codec
Профиль формата : [email protected]
Параметр CABAC формата : Да
Параметр ReFrames формата : 11 кадров
Идентификатор кодека : V_MPEG4/ISO/AVC
Продолжительность : 1 ч. 24 м.
Битрейт : 6500 Кбит/сек
Ширина : 964 пикселя
Высота : 720 пикселей
Соотношение сторон : 4:3
Режим частоты кадров : Постоянный
Частота кадров : 25,000 кадров/сек
Цветовое пространство : YUV
Субдискретизация насыщенности : 4:2:0
Битовая глубина : 8 бит
Тип развёртки : Прогрессивная
Бит/(Пиксели*Кадры) : 0.375
Размер потока : 3,76 Гбайт (89%)
Библиотека кодирования : x264 core 148 r2638 7599210
Настройки программы : cabac=1 / ref=11 / deblock=1:-2:-2 / analyse=0x3:0x113 / me=umh / subme=10 / psy=1 / psy_rd=1.03:0.07 / mixed_ref=1 / me_range=32 / chroma_me=1 / trellis=2 / 8x8dct=1 / cqm=0 / deadzone=21,11 / fast_pskip=0 / chroma_qp_offset=-3 / threads=12 / lookahead_threads=2 / sliced_threads=0 / nr=0 / decimate=0 / interlaced=0 / bluray_compat=0 / constrained_intra=0 / bframes=8 / b_pyramid=2 / b_adapt=2 / b_bias=0 / direct=3 / weightb=1 / open_gop=0 / weightp=2 / keyint=250 / keyint_min=25 / scenecut=40 / intra_refresh=0 / rc=2pass / mbtree=0 / bitrate=6500 / ratetol=1.0 / qcomp=0.63 / qpmin=0 / qpmax=39 / qpstep=4 / cplxblur=20.0 / qblur=0.5 / ip_ratio=1.40 / pb_ratio=1.30 / aq=1:1.00
Язык : English
Default : Да
Forced : Нет
Цветовой диапазон : Limited
Основные цвета : BT.709
Характеристики трансфера : BT.709
Коэффициенты матрицы : BT.709
Аудио #1
Идентификатор : 2
Формат : AC-3
Формат/Информация : Audio Coding 3
Расширение режима : CM (complete main)
Параметр Endianness формата : Big
Идентификатор кодека : A_AC3
Продолжительность : 1 ч. 24 м.
Вид битрейта : Постоянный
Битрейт : 448 Кбит/сек
Каналы : 6 каналов
Расположение каналов : Front: L C R, Side: L R, LFE
Частота : 48,0 КГц
Метод сжатия : С потерями
Задержка видео : 940 мс.
Размер потока : 271 Мбайт (6%)
Язык : Russian
Default : Да
Forced : Нет
Аудио #2
Идентификатор : 3
Формат : AC-3
Формат/Информация : Audio Coding 3
Расширение режима : CM (complete main)
Параметр Endianness формата : Big
Идентификатор кодека : A_AC3
Продолжительность : 1 ч. 24 м.
Вид битрейта : Постоянный
Битрейт : 224 Кбит/сек
Каналы : 1 канал
Расположение каналов : Front: C
Частота : 48,0 КГц
Метод сжатия : С потерями
Задержка видео : 946 мс.
Размер потока : 136 Мбайт (3%)
Язык : Russian
Default : Нет
Forced : Нет-
-Релиз от: -Автор релиза: -
[free-tor.com].t16822.torrent 
Торрент: Зарегистрирован [ 2018-09-12 14:57 ] · 2C88B92219AAA7FEF4BA5E9458983D4A74482598

Скачать .torrent

Скачать .torrent

22 KB

Статус: проверено
.torrent скачан: 6 раз
Размер: 4,24 GB
Правила
Похожие темы
[Профиль] [ЛС]
Показать сообщения:    
Ответить на тему

Текущее время: 16-Ноя 07:00

Часовой пояс: UTC + 4



Вы не можете начинать темы
Вы не можете отвечать на сообщения
Вы не можете редактировать свои сообщения
Вы не можете удалять свои сообщения
Вы не можете голосовать в опросах
Вы не можете прикреплять файлы к сообщениям
Вы можете скачивать файлы
Анализ веб сайтов Яндекс.Метрика Рейтинг@Mail.ru