Миссия невыполнима: Последствия / Mission: Impossible - Fallout (Кристофер МакКуорри) [2018, боевик, триллер, приключения, WEBRip 720p | DUB | Звук с TS]

Ответить на тему
Статистика раздачи [Обновить пиров]
Размер:  5,67 GB   |    Зарегистрирован:  12 дней   |    .torrent скачан:  17 раз
Сидов:  58  [  0 KB/s  ]   Личеров:  14  [  0 KB/s  ]   Подробная статистика пиров
 
   
 
 
Автор Сообщение

Skorp10n ®

Оффлайн

 Активный раздающий 1 Активный раздающий 2
 Активный релизер 1000 Активный релизер 1500 Активный релизер 2000 Активный релизер 250 Активный релизер 3000 Активный релизер 500 Активный релизер 5000 Активный релизер Фильмов (300) Активный релизер Фильмов (600) Активный Форумчанин 1 Активный Форумчанин 2 Активный Форумчанин 3 Активный Форумчанин 4 Друг трекера Карма 1000 Карма 1500 Карма 500 Меценат Ни дня без новостей Орденосец 1 степени Орденосец 2 степени Орденосец 3 степени Почетный орденосец Почетный репортер С Новым 2016 Годом! С Новым 2017 Годом! С Новым 2018 Годом! Супер Мега Контер Квейк ТОП-10

Пол: Мужской

Стаж: 3 года 1 месяц

Наличие запрета:

Сообщений: 6443

Откуда: Казахстан, Караганда

Отдача: не определено

Загрузка: не определено

Нажми

Создавать темы 13-Сен-2018 18:26

[Цитировать]

Миссия невыполнима: Последствия / Mission: Impossible - Fallout
«Когда миссия не оставляет выбора»
- - Год выпуска: 2018
Страна: США, Китай
Жанр: боевик, триллер, приключения, ...
Продолжительность: 02:29:58
Перевод: Дублированный [Звук с TS]
Субтитры: Корейские (Хардсаб)-В ролях: Том Круз. Генри Кавилл, Винг Реймз, Саймон Пегг, Ребекка Фергюсон, Шон Харрис, Анджела Бассетт, Ванесса Кирби, Мишель Монахэн, Уэс Бентли, ...
Режиссёр: Кристофер МакКуорри- -Итан Хант и его команда, а также недавно примкнувшие к ним союзники, вынуждены действовать наперегонки со временем, когда новая миссия идет не по плану.-Качество: WEBRip 720p
Формат: MKV
Видео кодек: MPEG-4 AVC
Аудио кодек: AC-3
Видео: MPEG-4 AVC, 5 027 kb/s, 1280x536, 23,976 fps
Аудио: AC-3, 2 ch, 384 Kbps, 48,0 KHz [RUS] - -***Примечание: Внимание! Присутствует реклама!
-

Доп. информация

-Бюджет $178 000 000-
-

Скриншоты

--
-

MediaInfo

-
Общее
Уникальный идентификатор                 : 201363382027915569045202209585828441271 (0x977D2D3D32D08642A2BCB8F8AEAFACB7)
Полное имя                               : E:\Миссия невыполнима Последствия\Mi6.2o18.Dt.HDTV.72Op_KOSHARA.mkv
Формат                                   : Matroska
Версия формата                           : Version 2
Размер файла                             : 5,67 Гбайт
Продолжительность                        : 2 ч. 29 м.
Режим общего битрейта                    : Переменный
Общий поток                              : 5413 Кбит/сек
Дата кодирования                         : UTC 2018-09-12 22:21:54
Программа кодирования                    : mkvmerge v8.3.0 ('Over the Horizon') 64bit
Библиотека кодирования                   : libebml v1.3.1 + libmatroska v1.4.2
Видео
Идентификатор                            : 1
Формат                                   : AVC
Формат/Информация                        : Advanced Video Codec
Профиль формата                          : [email protected]
Параметр CABAC формата                   : Да
Параметр ReFrames формата                : 4 кадра
Идентификатор кодека                     : V_MPEG4/ISO/AVC
Продолжительность                        : 2 ч. 29 м.
Вид битрейта                             : Переменный
Битрейт                                  : 5027 Кбит/сек
Максимальный битрейт                     : 5500 Кбит/сек
Ширина                                   : 1280 пикселей
Высота                                   : 536 пикселей
Соотношение сторон                       : 2,40:1
Режим частоты кадров                     : Постоянный
Частота кадров                           : 23,976 (24000/1001) кадра/сек
Стандарт вещания                         : Component
Цветовое пространство                    : YUV
Субдискретизация насыщенности            : 4:2:0
Битовая глубина                          : 8 бит
Тип развёртки                            : Прогрессивная
Бит/(Пиксели*Кадры)                      : 0.306
Размер потока                            : 5,27 Гбайт (93%)
Default                                  : Да
Forced                                   : Нет
Цветовой диапазон                        : Limited
Основные цвета                           : BT.709
Характеристики трансфера                 : BT.709
Коэффициенты матрицы                     : BT.709
Аудио
Идентификатор                            : 2
Формат                                   : AC-3
Формат/Информация                        : Audio Coding 3
Параметр Endianness формата              : Big
Идентификатор кодека                     : A_AC3
Продолжительность                        : 2 ч. 29 м.
Вид битрейта                             : Постоянный
Битрейт                                  : 384 Кбит/сек
Каналы                                   : 2 канала
Расположение каналов                     : Front: L R
Частота                                  : 48,0 КГц
Частота кадров                           : 31,250 кадров/сек (1536 spf)
Битовая глубина                          : 16 бит
Метод сжатия                             : С потерями
Размер потока                            : 412 Мбайт (7%)
ServiceKind/String                       : Complete Main
Default                                  : Да
Forced                                   : Нет
-
-
[free-tor.com].t16825.torrent 
Торрент: Зарегистрирован [ 2018-09-13 18:26 ] · 30F1F721F6F8DE8C71CDF080FA7D8B71D2CBCB45

Скачать .torrent

Скачать .torrent

29 KB

Статус: T временная
.torrent скачан: 17 раз
Размер: 5,67 GB
Правила
4udaki(13-Сен-18), [email protected](15-Сен-18)
Похожие темы
[Профиль] [ЛС]

Skorp10n ®

Оффлайн

 Активный раздающий 1 Активный раздающий 2
 Активный релизер 1000 Активный релизер 1500 Активный релизер 2000 Активный релизер 250 Активный релизер 3000 Активный релизер 500 Активный релизер 5000 Активный релизер Фильмов (300) Активный релизер Фильмов (600) Активный Форумчанин 1 Активный Форумчанин 2 Активный Форумчанин 3 Активный Форумчанин 4 Друг трекера Карма 1000 Карма 1500 Карма 500 Меценат Ни дня без новостей Орденосец 1 степени Орденосец 2 степени Орденосец 3 степени Почетный орденосец Почетный репортер С Новым 2016 Годом! С Новым 2017 Годом! С Новым 2018 Годом! Супер Мега Контер Квейк ТОП-10

Пол: Мужской

Стаж: 3 года 1 месяц

Наличие запрета:

Сообщений: 6443

Откуда: Казахстан, Караганда

Отдача: не определено

Загрузка: не определено

Нажми

Создавать темы 13-Сен-2018 18:27 (спустя 30 секунд)

[Цитировать]

T временная - до выхода лицензии!-
[Профиль] [ЛС]
Показать сообщения:    
Ответить на тему

Текущее время: 26-Сен 07:33

Часовой пояс: UTC + 4



Вы не можете начинать темы
Вы не можете отвечать на сообщения
Вы не можете редактировать свои сообщения
Вы не можете удалять свои сообщения
Вы не можете голосовать в опросах
Вы не можете прикреплять файлы к сообщениям
Вы можете скачивать файлы
Анализ веб сайтов Яндекс.Метрика Рейтинг@Mail.ru