Хан Соло: Звёздные войны. Истории / Solo: A Star Wars Story (Рон Ховард / Ron Howard) [2018, фантастика, фэнтези, боевик, приключения, HDRip-AVC от New-Team | D]

Ответить на тему
Статистика раздачи [Обновить пиров]
Размер:  1,4 GB   |    Зарегистрирован:  2 месяца 1 день   |    .torrent скачан:  6 раз
Сидов:  11  [  0 KB/s  ]   Личеров:  3  [  0 KB/s  ]   Подробная статистика пиров
 
   
 
 
Автор Сообщение

Skorp10n ®

Оффлайн

 Активный раздающий 1 Активный раздающий 2
 Активный релизер 1000 Активный релизер 1500 Активный релизер 2000 Активный релизер 250 Активный релизер 3000 Активный релизер 500 Активный релизер 5000 Активный релизер Фильмов (300) Активный релизер Фильмов (600) Активный Форумчанин 1 Активный Форумчанин 2 Активный Форумчанин 3 Активный Форумчанин 4 Друг трекера Карма 1000 Карма 1500 Карма 500 Меценат Ни дня без новостей Орденосец 1 степени Орденосец 2 степени Орденосец 3 степени Почетный орденосец Почетный репортер С Новым 2016 Годом! С Новым 2017 Годом! С Новым 2018 Годом! Супер Мега Контер Квейк ТОП-10

Пол: Мужской

Стаж: 3 года 3 месяца

Наличие запрета:

Сообщений: 7209

Откуда: Казахстан, Караганда

Отдача: не определено

Загрузка: не определено

Нажми

Создавать темы 14-Сен-2018 19:38

[Цитировать]

Хан Соло: Звёздные войны. Истории
Solo: A Star Wars Story
«Never tell him the odds»-
- Страна: США
Жанр: фантастика, фэнтези, боевик, приключения-Год выпуска: 2018
Продолжительность: 02:14:46-Перевод: Профессиональный (полное дублирование) [iTunes]
Субтитры: русские (форсированные, полные, SDH)
Оригинальная аудиодорожка: нет-Режиссер: Рон Ховард / Ron Howard-В ролях: Олден Эренрайк, Йонас Суотамо, Вуди Харрельсон, Эмилия Кларк, Дональд Гловер, Тэнди Ньютон, Фиби Уоллер-Бридж, Пол Беттани, Джон Фавро, Эрин Келлиман, Линда Хант, Йен Кенни-Описание:-Фильм расскажет о похождениях юного космического сорвиголовы Хана Соло и его верного напарника Чубакки и о том, как они стали самыми быстрыми пилотами и самыми хитрыми контрабандистами далёкой Галактики.- -Релиз: Автор рипа: stalkerok-Сэмпл-Качество видео: HDRip-AVC [Solo.A.Star.Wars.Story.2018.BluRay.720p.DTS.x264-HDChina]
Формат видео: MKV
Видео кодек: AVC
Аудио кодек: AC3
Видео: AVC, 1104 Кбит/сек, 960x402 (2.40:1), 23,976 кадр/сек
Аудио: AC3, 384 Кбит/сек, 48 КГц, 5.1 - русский
Навигация по главам: есть-

x264/MediaInfo

----[Information] [10.09.2018 22:24:58] x264 [info]: frame I:1706 Avg QP:16.35 size: 32181
---[Information] [10.09.2018 22:24:58] x264 [info]: frame P:45098 Avg QP:20.06 size: 11576
---[Information] [10.09.2018 22:24:58] x264 [info]: frame B:147083 Avg QP:21.88 size: 3667
Общее
Уникальный идентификатор : 230272643426890373042319921568418969531 (0xAD3CE5DF0FDC19C1A325CF9A112137BB)
Полное имя : O:!RipsSolo A Star Wars Story (2018)Solo.A.Star.Wars.Story.2018.HDRip.x264.Rus.stalkerok.New-Team.mkv
Формат : Matroska
Версия формата : Version 4 / Version 2
Размер файла : 1,40 Гбайт
Продолжительность : 2 ч. 14 м.
Общий поток : 1490 Кбит/сек
Название фильма : Solo: A Star Wars Story (2018) | Rip by stalkerok
Дата кодирования : UTC 2018-09-13 20:22:36
Программа кодирования : mkvmerge v8.6.1 ('Flying') 64bit
Библиотека кодирования : libebml v1.3.3 + libmatroska v1.4.4
Видео
Идентификатор : 1
Формат : AVC
Формат/Информация : Advanced Video Codec
Профиль формата : [email protected]
Параметр CABAC формата : Да
Параметр ReFrames формата : 12 кадров
Идентификатор кодека : V_MPEG4/ISO/AVC
Продолжительность : 2 ч. 14 м.
Битрейт : 1104 Кбит/сек
Ширина : 960 пикселей
Высота : 402 пикселя
Соотношение сторон : 2,40:1
Режим частоты кадров : Постоянный
Частота кадров : 23,976 (24000/1001) кадра/сек
Цветовое пространство : YUV
Субдискретизация насыщенности : 4:2:0
Битовая глубина : 8 бит
Тип развёртки : Прогрессивная
Бит/(Пиксели*Кадры) : 0.119
Размер потока : 1,04 Гбайт (74%)
Заголовок : Solo: A Star Wars Story (2018) | Rip by stalkerok
Библиотека кодирования : x264 core 157 r2932 303c484
Настройки программы : cabac=1 / ref=12 / deblock=1:-3:-2 / analyse=0x3:0x133 / me=umh / subme=11 / psy=1 / psy_rd=1.00:0.00 / mixed_ref=1 / me_range=32 / chroma_me=1 / trellis=2 / 8x8dct=1 / cqm=0 / deadzone=21,11 / fast_pskip=0 / chroma_qp_offset=-2 / threads=12 / lookahead_threads=3 / sliced_threads=0 / nr=0 / decimate=1 / interlaced=0 / bluray_compat=0 / constrained_intra=0 / bframes=15 / b_pyramid=2 / b_adapt=2 / b_bias=0 / direct=3 / weightb=1 / open_gop=0 / weightp=2 / keyint=240 / keyint_min=23 / scenecut=40 / intra_refresh=0 / rc_lookahead=60 / rc=crf / mbtree=0 / crf=19.7 / qcomp=0.65 / qpmin=0 / qpmax=69 / qpstep=4 / vbv_maxrate=50000 / vbv_bufsize=62500 / crf_max=0.0 / nal_hrd=none / filler=0 / ip_ratio=1.40 / pb_ratio=1.30 / aq=3:0.90 / zones=181482,193886,q=34
Default : Да
Forced : Нет
Аудио
Идентификатор : 2
Формат : AC-3
Формат/Информация : Audio Coding 3
Расширение режима : CM (complete main)
Параметр Endianness формата : Big
Идентификатор кодека : A_AC3
Продолжительность : 2 ч. 14 м.
Вид битрейта : Постоянный
Битрейт : 384 Кбит/сек
Каналы : 6 каналов
Расположение каналов : Front: L C R, Side: L R, LFE
Частота : 48,0 КГц
Частота кадров : 31,250 кадров/сек (1536 spf)
Метод сжатия : С потерями
Размер потока : 370 Мбайт (26%)
Язык : Russian
Default : Да
Forced : Нет
Текст #1
Идентификатор : 3
Формат : UTF-8
Идентификатор кодека : S_TEXT/UTF8
Идентификатор кодека/Информация : UTF-8 Plain Text
Продолжительность : 1 ч. 17 м.
Битрейт : 1 бит/сек
Count of elements : 16
Размер потока : 585 байт (0%)
Заголовок : Forced
Язык : Russian
Default : Да
Forced : Нет
Текст #2
Идентификатор : 4
Формат : UTF-8
Идентификатор кодека : S_TEXT/UTF8
Идентификатор кодека/Информация : UTF-8 Plain Text
Продолжительность : 2 ч. 6 м.
Битрейт : 83 бит/сек
Count of elements : 1829
Размер потока : 77,5 Кбайт (0%)
Заголовок : Full
Язык : Russian
Default : Нет
Forced : Нет
Текст #3
Идентификатор : 5
Формат : UTF-8
Идентификатор кодека : S_TEXT/UTF8
Идентификатор кодека/Информация : UTF-8 Plain Text
Продолжительность : 2 ч. 5 м.
Битрейт : 96 бит/сек
Count of elements : 2246
Размер потока : 88,7 Кбайт (0%)
Заголовок : SDH
Язык : Russian
Default : Нет
Forced : Нет
Меню
00:00:00.000 : en:Opening Credits
00:00:53.845 : en:Streets of Corellia
00:02:10.213 : en:Qi'ra
00:03:53.150 : en:Den of The White Worms
00:06:00.485 : en:Corellian Speeder Chase
00:09:27.567 : en:Coronet Spaceport
00:13:16.045 : en:Recruitment
00:14:14.020 : en:Mimban Battlefield
00:16:12.263 : en:None-of-Your-Business Company
00:19:45.101 : en:The Beast
00:22:43.821 : en:Mimban Escape
00:24:37.267 : en:Vandor
00:27:00.035 : en:Camfire Stories
00:30:02.926 : en:Conveyex Heist
00:32:54.681 : en:Marauder Attack
00:39:09.764 : en:"You're in This Life For Good"
00:41:59.225 : en:The Yacht
00:43:20.181 : en:Dryden Vos
00:44:32.128 : en:Reunion
00:48:03.756 : en:Deal with Crimson Dawn
00:51:58.324 : en:The Lodge
00:53:17.528 : en:Full Sabacc
00:57:23.523 : en:Lando and L3
01:00:16.780 : en:Millennium Falcon
01:02:40.882 : en:"Buckle Up, Baby"
01:04:51.262 : en:"People Are Predictable"
01:05:29.509 : en:Han and Qi'ra
01:07:12.028 : en:"Trust No One"
01:08:05.915 : en:Not Cpmpatible
01:10:00.113 : en:Arrival on Kessel
01:12:44.193 : en:Into the Mines
01:14:40.851 : en:Revolt
01:18:30.873 : en:Kessel Shootout
01:23:15.741 : en:Into the Maelstrom
01:26:32.646 : en:Kessel Run
01:30:33.136 : en:Escaping the Maw
01:35:19.672 : en:Savareen
01:37:04.861 : en:The Good Guy
01:38:52.802 : en:Marauders Return
01:41:18.531 : en:Enfys Nest
01:43:02.676 : en:One Last Score
01:45:27.821 : en:The Delivery
01:46:32.177 : en:Explosive Stuff
01:49:45.996 : en:Double-Crossings
01:53:33.890 : en:Duel with Dryden
01:57:13.902 : en:Secret Leader
01:58:55.128 : en:Showdown
02:01:34.829 : en:Rebellion's Dawn
02:03:20.893 : en:Sabacc Rematch
02:06:09.353 : en:End Credits-
-

Скриншоты

--
- -
[free-tor.com].t16828.torrent 
Торрент: Зарегистрирован [ 2018-09-14 19:38 ] · ACA34DA34006958FF77D04DC3109A1513603339D

Скачать .torrent

Скачать .torrent

15 KB

Статус: проверено
.torrent скачан: 6 раз
Размер: 1,4 GB
Правила
4udaki(14-Сен-18)
Похожие темы
[Профиль] [ЛС]
Показать сообщения:    
Ответить на тему

Текущее время: 16-Ноя 07:23

Часовой пояс: UTC + 4



Вы не можете начинать темы
Вы не можете отвечать на сообщения
Вы не можете редактировать свои сообщения
Вы не можете удалять свои сообщения
Вы не можете голосовать в опросах
Вы не можете прикреплять файлы к сообщениям
Вы можете скачивать файлы
Анализ веб сайтов Яндекс.Метрика Рейтинг@Mail.ru