Дневник пастыря / First Reformed (Пол Шредер) [2017, триллер, драма, BDRip 1080р от TeamHD | iTunes]

Ответить на тему
Статистика раздачи [Обновить пиров]
Размер:  8,02 GB   |    Зарегистрирован:  11 дней   |    .torrent скачан:  8 раз
Сидов:  288  [  0 KB/s  ]   Личеров:  18  [  0 KB/s  ]   Подробная статистика пиров
 
   
 
 
Автор Сообщение

Skorp10n ®

Оффлайн

 Активный раздающий 1 Активный раздающий 2
 Активный релизер 1000 Активный релизер 1500 Активный релизер 2000 Активный релизер 250 Активный релизер 3000 Активный релизер 500 Активный релизер 5000 Активный релизер Фильмов (300) Активный релизер Фильмов (600) Активный Форумчанин 1 Активный Форумчанин 2 Активный Форумчанин 3 Активный Форумчанин 4 Друг трекера Карма 1000 Карма 1500 Карма 500 Меценат Ни дня без новостей Орденосец 1 степени Орденосец 2 степени Орденосец 3 степени Почетный орденосец Почетный репортер С Новым 2016 Годом! С Новым 2017 Годом! С Новым 2018 Годом! Супер Мега Контер Квейк ТОП-10

Пол: Мужской

Стаж: 3 года 2 месяца

Наличие запрета:

Сообщений: 6739

Откуда: Казахстан, Караганда

Отдача: не определено

Загрузка: не определено

Нажми

Создавать темы 08-Окт-2018 10:45

[Цитировать]

Информация о фильме- Название: Дневник пастыря
Оригинальное название: First Reformed
Год выхода: 2017
Жанр: Триллер, драма
Режиссер: Пол Шредер
В ролях: Аманда Сайфред, Итэн Хоук, Седрик «Развлекатель», Виктория Хилл, Майкл Гэстон, Филип Эттинджер, Ван Хэнсис, Кристина Алабадо, Билл Хоаг, Иланна Уайт- -О фильме: Армейский священник Толлер, оплакивающий гибель сына-солдата, ищет утешения под сводами церкви. Здесь он знакомится с молодой прихожанкой Мэри, женой рьяного защитника природы. Когда эколог-активист кончает жизнь самоубийством, Толлер и несчастная вдова открывают правду о коррупционном заговоре, в котором замешаны самые почтенные лица, включая священнослужителей.-Страна: США
Студия: Killer Films, Fibonacci Films, Arclight Films
Продолжительность: 01:53:13
Перевод: Дублированный | iTunes-Качество: BDRip 1080p
Видео: MPEG-4 AVC, 1440x1080, 8250 Кbit/s, 23.976 fps
Звук:
Аудио #01: 48 kHz, AC3, 5.1, 384 Kbps | iTunes | RUS |
Аудио #02: 48 kHz, DTS, 5.1, 1510 Kbps | Оригинал | ENG |
Субтитры: Русские (Forced, 2 x Full), английские-

Скриншоты

--
-

MI

-General
Unique ID : 247254140241146369974962917342976393336 (0xBA036A4E3E8FAA0787021348BD43C078)
Complete name : D:Video111na timFirst.Reformed.2017.1080p.BluRay.Rus.Eng.TeamHD-selezen.mkv
Format : Matroska
Format version : Version 4
File size : 8.02 GiB
Duration : 1 h 53 min
Overall bit rate : 10.1 Mb/s
Movie name : First Reformed (2017) TeamHD-селезень
Encoded date : UTC 2018-10-07 18:43:20
Writing application : mkvmerge v7.3.0 ('Nouages') 64bit built on Oct 22 2014 18:53:34
Writing library : libebml v1.3.0 + libmatroska v1.4.1
Video
ID : 1
Format : AVC
Format/Info : Advanced Video Codec
Format profile : [email protected]
Format settings : CABAC / 5 Ref Frames
Format settings, CABAC : Yes
Format settings, ReFrames : 5 frames
Codec ID : V_MPEG4/ISO/AVC
Duration : 1 h 53 min
Bit rate : 8 250 kb/s
Width : 1 440 pixels
Height : 1 080 pixels
Display aspect ratio : 4:3
Frame rate mode : Constant
Frame rate : 23.976 (24000/1001) FPS
Color space : YUV
Chroma subsampling : 4:2:0
Bit depth : 8 bits
Scan type : Progressive
Bits/(Pixel*Frame) : 0.221
Stream size : 6.52 GiB (81%)
Title : selezen
Writing library : x264 core 148 r2705 3f5ed56
Encoding settings : cabac=1 / ref=5 / deblock=1:-2:-2 / analyse=0x3:0x133 / me=umh / subme=11 / psy=1 / psy_rd=1.20:0.50 / mixed_ref=1 / me_range=48 / chroma_me=1 / trellis=2 / 8x8dct=1 / cqm=0 / deadzone=21,11 / fast_pskip=0 / chroma_qp_offset=-4 / threads=12 / lookahead_threads=2 / sliced_threads=0 / nr=0 / decimate=0 / interlaced=0 / bluray_compat=0 / constrained_intra=0 / bframes=8 / b_pyramid=2 / b_adapt=2 / b_bias=0 / direct=3 / weightb=1 / open_gop=0 / weightp=2 / keyint=240 / keyint_min=23 / scenecut=40 / intra_refresh=0 / rc_lookahead=50 / rc=2pass / mbtree=0 / bitrate=8250 / ratetol=1.0 / qcomp=0.60 / qpmin=0 / qpmax=51 / qpstep=4 / cplxblur=20.0 / qblur=0.5 / vbv_maxrate=50000 / vbv_bufsize=62500 / nal_hrd=none / filler=0 / ip_ratio=1.40 / pb_ratio=1.30 / aq=3:0.80
Language : English
Default : Yes
Forced : No
Audio #1
ID : 2
Format : DTS
Format/Info : Digital Theater Systems
Codec ID : A_DTS
Duration : 1 h 53 min
Bit rate mode : Constant
Bit rate : 1 509 kb/s
Channel(s) : 6 channels
Channel layout : C L R Ls Rs LFE
Sampling rate : 48.0 kHz
Frame rate : 93.750 FPS (512 SPF)
Bit depth : 24 bits
Compression mode : Lossy
Stream size : 1.19 GiB (15%)
Title : Original
Language : English
Default : No
Forced : No
Audio #2
ID : 7
Format : AC-3
Format/Info : Audio Coding 3
Commercial name : Dolby Digital
Codec ID : A_AC3
Duration : 1 h 53 min
Bit rate mode : Constant
Bit rate : 384 kb/s
Channel(s) : 6 channels
Channel layout : L R C LFE Ls Rs
Sampling rate : 48.0 kHz
Frame rate : 31.250 FPS (1536 SPF)
Bit depth : 16 bits
Compression mode : Lossy
Stream size : 311 MiB (4%)
Title : iTunes
Language : Russian
Service kind : Complete Main
Default : Yes
Forced : Yes
Text #1
ID : 3
Format : UTF-8
Codec ID : S_TEXT/UTF8
Codec ID/Info : UTF-8 Plain Text
Duration : 1 h 46 min
Bit rate : 5 b/s
Count of elements : 77
Stream size : 4.37 KiB (0%)
Title : Forced
Language : Russian
Default : Yes
Forced : Yes
Text #2
ID : 4
Format : UTF-8
Codec ID : S_TEXT/UTF8
Codec ID/Info : UTF-8 Plain Text
Duration : 1 h 48 min
Bit rate : 95 b/s
Count of elements : 1456
Stream size : 76.0 KiB (0%)
Title : Full [Dark_Alice]
Language : Russian
Default : No
Forced : No
Text #3
ID : 5
Format : UTF-8
Codec ID : S_TEXT/UTF8
Codec ID/Info : UTF-8 Plain Text
Duration : 1 h 46 min
Bit rate : 93 b/s
Count of elements : 1405
Stream size : 73.1 KiB (0%)
Title : Full [PhysKids]
Language : Russian
Default : No
Forced : No
Text #4
ID : 6
Format : UTF-8
Codec ID : S_TEXT/UTF8
Codec ID/Info : UTF-8 Plain Text
Duration : 1 h 51 min
Bit rate : 60 b/s
Count of elements : 1391
Stream size : 49.6 KiB (0%)
Title : SDH
Language : English
Default : No
Forced : No
Menu
00:00:00.000 : en:Chapter 1
00:07:32.744 : en:Chapter 2
00:08:48.361 : en:Chapter 3
00:21:52.728 : en:Chapter 4
00:30:52.726 : en:Chapter 5
00:36:41.950 : en:Chapter 6
00:41:54.262 : en:Chapter 7
00:50:02.958 : en:Chapter 8
00:55:18.482 : en:Chapter 9
01:04:40.668 : en:Chapter 10
01:10:59.922 : en:Chapter 11
01:16:19.241 : en:Chapter 12
01:25:24.119 : en:Chapter 13
01:30:49.485 : en:Chapter 14
01:38:48.964 : en:Chapter 15
01:45:22.524 : en:Chapter 16-
-Релиз от: Автор релиза: -
[free-tor.com].t17123.torrent 
Торрент: Зарегистрирован [ 2018-10-08 10:45 ] · 89C83D161F5565863E7A2E5F4DC06A5B0CCC4C37

Скачать .torrent

Скачать .torrent

161 KB

Статус: проверено
.torrent скачан: 8 раз
Размер: 8,02 GB
Правила
Похожие темы
[Профиль] [ЛС]
Показать сообщения:    
Ответить на тему

Текущее время: 20-Окт 00:14

Часовой пояс: UTC + 4



Вы не можете начинать темы
Вы не можете отвечать на сообщения
Вы не можете редактировать свои сообщения
Вы не можете удалять свои сообщения
Вы не можете голосовать в опросах
Вы не можете прикреплять файлы к сообщениям
Вы можете скачивать файлы
Анализ веб сайтов Яндекс.Метрика Рейтинг@Mail.ru