Флэш / The Flash (Дэвид Наттер) [05x01-02 из 23] [2018, фантастика, боевик, WEBRip 720p | ColdFilm]

Ответить на тему
Статистика раздачи [Обновить пиров]
Размер:  1,89 GB   |    Зарегистрирован:  2 дня 6 часов   |    .torrent скачан:  4 раза
Сидов:  28  [  0 KB/s  ]   Личеров:  77  [  0 KB/s  ]   Подробная статистика пиров
 
   
 
 
Автор Сообщение

Skorp10n ®

Оффлайн

 Активный раздающий 1 Активный раздающий 2
 Активный релизер 1000 Активный релизер 1500 Активный релизер 2000 Активный релизер 250 Активный релизер 3000 Активный релизер 500 Активный релизер 5000 Активный релизер Фильмов (300) Активный релизер Фильмов (600) Активный Форумчанин 1 Активный Форумчанин 2 Активный Форумчанин 3 Активный Форумчанин 4 Друг трекера Карма 1000 Карма 1500 Карма 500 Меценат Ни дня без новостей Орденосец 1 степени Орденосец 2 степени Орденосец 3 степени Почетный орденосец Почетный репортер С Новым 2016 Годом! С Новым 2017 Годом! С Новым 2018 Годом! Супер Мега Контер Квейк ТОП-10

Пол: Мужской

Стаж: 3 года 2 месяца

Наличие запрета:

Сообщений: 6739

Откуда: Казахстан, Караганда

Отдача: не определено

Загрузка: не определено

Нажми

Создавать темы 10-Окт-2018 12:29

[Цитировать]

Информация о фильме- Название: Флэш
Оригинальное название: The Flash
Год выпуска: 2018
Жанр: Фантастика, боевик
Режиссер: Дэвид Наттер
В ролях: Грант Гастин, Кэндис Паттон, Рик Коснетт, Даниэль Панабэйкер, Карлос Вальдес, Томас Кэвэна, Джесси Л. Мартин, Джон Уэсли Шипп, Стивен Амелл, Ёсиэ Бэнкрофт-О фильме:-Из-за несчастного случая судмедэксперт Барри Аллен приобретает способность передвигаться с невероятной скоростью. Этот случай делает из него супергероя, которым он всегда мечтал стать. Защищая город, как ангел-хранитель, делая невозможное, спасая жизни со скоростью вспышки, по подсказке Оливера Куина (Стрела), он берёт себе и соответствующее имя - Флэш.- -Страна: США
Студия: Berlanti Productions, DC Entertainment, Warner Bros. Television
Продолжительность: 2 x ~ 00:44:00
Перевод: Любительский многоголосый | ColdFilm-Файл-Кодек: x264 (AVC)
Качество: WEBRip 720p
Видео: 3000 Кбит/с, 1280x720, 25.000 fps
Аудио: Русский (AC3, 2 ch, 125 Кбит/с)- -

Скриншоты

--
-

MI

-General
Unique ID : 254491022641916269379343200060652186280 (0xBF753027DEEABC2E8C519A7B413CEAA8)
Complete name : The.Flash.S05E01.720p.ColdFilm.mkv
Format : Matroska
Format version : Version 2
File size : 969 MiB
Duration : 42 min 14 s
Overall bit rate : 3 206 kb/s
Encoded date : UTC 2018-10-10 01:47:09 / UTC 2017-11-20 18:25:40
Writing application : mkvmerge v3.3.0 ('Language') built on Mar 24 2010 14:59:24
Writing library : libebml v0.8.0 + libmatroska v0.9.0 / Lavf54.63.104
Video
ID : 1
Format : AVC
Format/Info : Advanced Video Codec
Format profile : [email protected]
Format settings : CABAC / 1 Ref Frames
Format settings, CABAC : Yes
Format settings, ReFrames : 1 frame
Codec ID : V_MPEG4/ISO/AVC
Duration : 42 min 14 s
Bit rate : 3 000 kb/s
Width : 1 280 pixels
Height : 720 pixels
Display aspect ratio : 16:9
Frame rate mode : Constant
Frame rate : 25.000 FPS
Color space : YUV
Chroma subsampling : 4:2:0
Bit depth : 8 bits
Scan type : Progressive
Bits/(Pixel*Frame) : 0.130
Stream size : 892 MiB (92%)
Writing library : x264 core 129
Default : No
Forced : No
Audio
ID : 2
Format : AC-3
Format/Info : Audio Coding 3
Codec ID : A_AC3
Duration : 42 min 14 s
Bit rate mode : Constant
Bit rate : 192 kb/s
Channel(s) : 2 channels
Channel positions : Front: L R
Sampling rate : 48.0 kHz
Frame rate : 31.250 FPS (1536 SPF)
Bit depth : 16 bits
Compression mode : Lossy
Stream size : 58.0 MiB (6%)
Service kind : Complete Main
Default : Yes
Forced : No-
-Релиз от: -
[free-tor.com].t17139.torrent 
Торрент: Зарегистрирован [ 2018-10-17 16:53 ] · E4C9B8C2AA0492A6512CFE4F22E2213BBA978780

Скачать .torrent

Скачать .torrent

20 KB

Статус: проверено
.torrent скачан: 4 раз
Размер: 1,89 GB
Правила
Похожие темы
[Профиль] [ЛС]
Показать сообщения:    
Ответить на тему

Текущее время: 19-Окт 23:29

Часовой пояс: UTC + 4



Вы не можете начинать темы
Вы не можете отвечать на сообщения
Вы не можете редактировать свои сообщения
Вы не можете удалять свои сообщения
Вы не можете голосовать в опросах
Вы не можете прикреплять файлы к сообщениям
Вы можете скачивать файлы
Анализ веб сайтов Яндекс.Метрика Рейтинг@Mail.ru