Небоскрёб / Skyscraper (Роусон Маршалл Тёрбер) [2018, боевик, триллер, драма, криминал, BDRip 1080p от TeamHD | 3D-Video | halfOU | Лицензия]

Ответить на тему
Статистика раздачи [Обновить пиров]
Размер:  13,07 GB   |    Зарегистрирован:  1 месяц 19 дней   |    .torrent скачан:  11 раз
Сидов:  188  [  0 KB/s  ]   Личеров:  35  [  0 KB/s  ]   Подробная статистика пиров
 
   
 
 
Автор Сообщение

Skorp10n ®

Оффлайн

 Активный раздающий 1 Активный раздающий 2
 Активный релизер 1000 Активный релизер 1500 Активный релизер 2000 Активный релизер 250 Активный релизер 3000 Активный релизер 500 Активный релизер 5000 Активный релизер Фильмов (1000) Активный релизер Фильмов (300) Активный релизер Фильмов (600) Активный Форумчанин 1 Активный Форумчанин 2 Активный Форумчанин 3 Активный Форумчанин 4 Друг трекера Карма 1000 Карма 1500 Карма 500 Меценат Ни дня без новостей Орденосец 1 степени Орденосец 2 степени Орденосец 3 степени Почетный орденосец Почетный репортер С Новым 2016 Годом! С Новым 2017 Годом! С Новым 2018 Годом! Супер Мега Контер Квейк ТОП-10

Пол: Мужской

Стаж: 3 года 4 месяца

Наличие запрета:

Сообщений: 7773

Откуда: Казахстан, Караганда

Отдача: не определено

Загрузка: не определено

Нажми

Создавать темы 12-Окт-2018 14:17

[Цитировать]

Информация о фильме- Название: Небоскрёб
Оригинальное название: Skyscraper
Год выхода: 2018
Жанр: Боевик, триллер, драма, криминал
Режиссер: Роусон Маршалл Тёрбер
В ролях: Дуэйн Джонсон, Нив Кэмпбелл, Пабло Шрайбер, Ноа Тейлор, Кевин Ранкин, Роланд Мёллер, Байрон Манн, Мэтт О`Лири, Адриан Холмс- -О фильме: Самый высокий и технологичный небоскрёб в мире становится центром огненной катастрофы. Только бывший агент ФБР, а теперь эксперт по безопасности Уилл Форд может спасти вертикальный город под небесами. Когда нельзя доверять никому, а жизнь семьи в опасности, каждая секунда на счету.-Страна: США
Студия: Legendary Entertainment, Flynn Picture Company, Seven Bucks Productions
Продолжительность: 01:42:24
Перевод: Дублированный | Лицензия-Качество: BDRip 1080p | halfOU
Видео: MPEG-4 AVC, 1920x1080, 17000 Kbit/s, 23.976 fps
Звук:
Аудио #01: 48 kHz, AC3, 5.1, 640 Kbps | Лицензия | RUS |
Аудио #02: 48 kHz, AC3, 2.0, 192 Kbps | Студия LeDoyen | UKR |
Аудио #03: 48 kHz, AC3, 5.1, 448 Kbps | Оригинал | ENG |
Субтитры: Русские (Forced,Full), английские (Full,SDH)-

Скриншоты

--
-Формат 3D: Half OverUnder - Вертикальная анаморфная стереопара.
Порядок ракурсов: левый ракурс первый-

MI

-General
Unique ID : 149302817777539953234380498872542975907 (0x7052AD3FBE9E918BB6FDA7668D6457A3)
Complete name : D:Video111Skyscaper.2018.1080p.BluRay.3DhalfOU.Rus.Ukr.Eng.TeamHD-selezen.mkv
Format : Matroska
Format version : Version 4
File size : 13.1 GiB
Duration : 1 h 42 min
Overall bit rate : 18.3 Mb/s
Movie name : Skyscraper (2018) TeamHD-селезень
Encoded date : UTC 2018-10-27 22:40:51
Writing application : mkvmerge v28.0.0 ('Voice In My Head') 64-bit
Writing library : libebml v1.3.6 + libmatroska v1.4.9
Video
ID : 1
Format : AVC
Format/Info : Advanced Video Codec
Format profile : [email protected]
Format settings : CABAC / 4 Ref Frames
Format settings, CABAC : Yes
Format settings, ReFrames : 4 frames
Codec ID : V_MPEG4/ISO/AVC
Duration : 1 h 42 min
Bit rate : 17.0 Mb/s
Width : 1 920 pixels
Height : 1 080 pixels
Display aspect ratio : 16:9
Frame rate mode : Constant
Frame rate : 23.976 (24000/1001) FPS
Color space : YUV
Chroma subsampling : 4:2:0
Bit depth : 8 bits
Scan type : Progressive
Bits/(Pixel*Frame) : 0.342
Stream size : 12.2 GiB (93%)
Title : selezen
Writing library : x264 core 148 r2705kMod 3f5ed56
Encoding settings : cabac=1 / ref=4 / deblock=1:-2:-2 / analyse=0x3:0x133 / me=umh / subme=10 / psy=1 / fade_compensate=0.00 / psy_rd=1.05:0.05 / mixed_ref=1 / me_range=32 / chroma_me=1 / trellis=2 / 8x8dct=1 / cqm=0 / deadzone=21,11 / fast_pskip=0 / chroma_qp_offset=-3 / threads=12 / lookahead_threads=2 / sliced_threads=0 / nr=0 / decimate=0 / interlaced=0 / bluray_compat=0 / constrained_intra=0 / fgo=0 / bframes=8 / b_pyramid=2 / b_adapt=2 / b_bias=0 / direct=3 / weightb=1 / open_gop=0 / weightp=2 / keyint=240 / keyint_min=23 / scenecut=40 / intra_refresh=0 / rc_lookahead=50 / rc=2pass / mbtree=0 / bitrate=17000 / ratetol=1.0 / qcomp=0.60 / qpmin=0 / qpmax=51 / qpstep=4 / cplxblur=20.0 / qblur=0.5 / vbv_maxrate=50000 / vbv_bufsize=62500 / nal_hrd=none / filler=0 / ip_ratio=1.40 / pb_ratio=1.30 / aq=3:0.80
Language : English
Default : Yes
Forced : No
Audio #1
ID : 2
Format : AC-3
Format/Info : Audio Coding 3
Commercial name : Dolby Digital
Codec ID : A_AC3
Duration : 1 h 42 min
Bit rate mode : Constant
Bit rate : 640 kb/s
Channel(s) : 6 channels
Channel layout : L R C LFE Ls Rs
Sampling rate : 48.0 kHz
Frame rate : 31.250 FPS (1536 SPF)
Bit depth : 16 bits
Compression mode : Lossy
Stream size : 469 MiB (4%)
Title : Dub [License]
Language : Russian
Service kind : Complete Main
Default : Yes
Forced : Yes
Audio #2
ID : 3
Format : AC-3
Format/Info : Audio Coding 3
Commercial name : Dolby Digital
Codec ID : A_AC3
Duration : 1 h 42 min
Bit rate mode : Constant
Bit rate : 192 kb/s
Channel(s) : 2 channels
Channel layout : L R
Sampling rate : 48.0 kHz
Frame rate : 31.250 FPS (1536 SPF)
Bit depth : 16 bits
Compression mode : Lossy
Stream size : 141 MiB (1%)
Title : Dub [студія LeDoyen]
Language : Ukrainian
Service kind : Complete Main
Default : No
Forced : No
Audio #3
ID : 4
Format : AC-3
Format/Info : Audio Coding 3
Commercial name : Dolby Digital
Codec ID : A_AC3
Duration : 1 h 42 min
Bit rate mode : Constant
Bit rate : 448 kb/s
Channel(s) : 6 channels
Channel layout : L R C LFE Ls Rs
Sampling rate : 48.0 kHz
Frame rate : 31.250 FPS (1536 SPF)
Bit depth : 16 bits
Compression mode : Lossy
Stream size : 328 MiB (2%)
Title : Original
Language : English
Service kind : Complete Main
Default : No
Forced : No
Text #1
ID : 5
Format : UTF-8
Codec ID : S_TEXT/UTF8
Codec ID/Info : UTF-8 Plain Text
Duration : 1 h 41 min
Bit rate : 1 b/s
Count of elements : 47
Stream size : 1.45 KiB (0%)
Title : Forced
Language : Russian
Default : Yes
Forced : Yes
Text #2
ID : 6
Format : UTF-8
Codec ID : S_TEXT/UTF8
Codec ID/Info : UTF-8 Plain Text
Duration : 1 h 33 min
Bit rate : 74 b/s
Count of elements : 956
Stream size : 51.2 KiB (0%)
Title : Full
Language : Russian
Default : No
Forced : No
Text #3
ID : 7
Format : UTF-8
Codec ID : S_TEXT/UTF8
Codec ID/Info : UTF-8 Plain Text
Duration : 1 h 31 min
Bit rate : 43 b/s
Count of elements : 988
Stream size : 29.2 KiB (0%)
Title : Full
Language : English
Default : No
Forced : No
Text #4
ID : 8
Format : UTF-8
Codec ID : S_TEXT/UTF8
Codec ID/Info : UTF-8 Plain Text
Duration : 1 h 42 min
Bit rate : 54 b/s
Count of elements : 1475
Stream size : 40.5 KiB (0%)
Title : SDH
Language : English
Default : No
Forced : No
Menu
00:00:00.000 : en:00:00:00.000
00:04:24.764 : en:00:04:24.764
00:10:07.357 : en:00:10:07.357
00:16:09.927 : en:00:16:09.927
00:21:12.605 : en:00:21:12.605
00:25:34.992 : en:00:25:34.992
00:30:11.727 : en:00:30:11.727
00:35:23.913 : en:00:35:23.913
00:40:07.113 : en:00:40:07.113
00:47:18.961 : en:00:47:18.961
00:52:10.252 : en:00:52:10.252
00:58:16.785 : en:00:58:16.785
01:02:02.969 : en:01:02:02.969
01:05:29.634 : en:01:05:29.634
01:09:59.404 : en:01:09:59.404
01:14:31.425 : en:01:14:31.425
01:17:18.259 : en:01:17:18.259
01:23:33.342 : en:01:23:33.342
01:27:46.219 : en:01:27:46.219
01:32:54.569 : en:01:32:54.569-
-Релиз от: Автор релиза: -
[free-tor.com].t17163.torrent 
Торрент: Зарегистрирован [ 2018-10-28 22:41 ] · 0054D6D04E411962C6C52992E60C5A262EA12F2F

Скачать .torrent

Скачать .torrent

132 KB

Статус: проверено
.torrent скачан: 11 раз
Размер: 13,07 GB
Правила
Похожие темы
[Профиль] [ЛС]
Показать сообщения:    
Ответить на тему

Текущее время: 17-Дек 00:57

Часовой пояс: UTC + 4



Вы не можете начинать темы
Вы не можете отвечать на сообщения
Вы не можете редактировать свои сообщения
Вы не можете удалять свои сообщения
Вы не можете голосовать в опросах
Вы не можете прикреплять файлы к сообщениям
Вы можете скачивать файлы
Анализ веб сайтов Яндекс.Метрика Рейтинг@Mail.ru