Динозавр (Евгений Серов, Всеволод Аравин, Олег Компасов) [2018, комедия, триллер, детектив, WEB-DL, 1080p-LQ] (сезон 1, серии 1-10 из 10)

Ответить на тему
Статистика раздачи [Обновить пиров]
Размер:  8,69 GB   |    Зарегистрирован:  1 месяц 6 дней   |    .torrent скачан:  8 раз

Полного источника не было: 26 дней

 
   
 
 
 
Автор Сообщение

ndg ®

Оффлайн



Пол: Мужской

Стаж: 1 год 9 месяцев

Наличие запрета:

Сообщений: 72

Откуда: г. Павлодар

Отдача: не определено

Загрузка: не определено

Нажми

Создавать темы 13-Окт-2018 07:57

[Цитировать]

- Динозавр (сезон 1, серии 1-10 из 10) - Производство: Россия
Жанр: комедия, триллер, детектив
Режиссер: Евгений Серов, Всеволод Аравин, Олег Компасов
Актеры: Андрей Смирнов, Илья Любимов, Ольга Тумайкина, Светлана Немоляева, Юрий Чурсин, Александр Панкратов-Черный, Инна Чурикова, Борис Комаров, Вилен Бабичев, Александр Берда и др.
Описание:
Престарелый криминальный авторитет Семен Тимофеевич Бабушкин, о чьем воровском таланте в свое время слагали легенды, последние 35 лет Семен Тимофеевич не выходил из тюрьмы, предпочитая ее свободе, где у него не осталось ни друзей, ни родных. Но однажды Бабушкин получает письмо, из которого узнает, что у него, оказывается, все-таки есть на воле кровиночка, сын Слава. По иронии судьбы, младший Бабушкин служит следователем в органах, но в настоящее время нуждается в помощи - его серьезно подставили, и под угрозой оказалась не только его жизнь, но и безопасность его дочери. Тогда благородный бандит принимается налаживать свои старые связи и навыки, чтобы вытащить новоявленную семью из беды.

Возраст: 16+ (зрителям, достигшим 16 лет)
Дата российской премьеры: 8 октября 2018
Релиз от: Алехаndr
Продолжительность: ~00:46:00 серия
Качество видео: WEB-DL
Видео: AVC/H.264, 1920x1080 (16:9), ~2675 Kbps
Аудио: AC3, 2 ch, 192 Kbps

МИ

Общее
Уникальный идентификатор : 87813144356317379517233000295349695339 (0x42103248C1720E1B272E1D335DB5336B)
Полное имя : D:\Динозавр (2018).by.Алехаndr\Серия 01.by.Алехаndr.mkv
Формат : Matroska
Версия формата : Version 4
Размер файла : 968 Мбайт
Продолжительность : 47 м. 10 с.
Общий поток : 2869 Кбит/сек
Дата кодирования : UTC 2018-10-08 19:36:50
Программа кодирования : mkvmerge v27.0.0 ('Metropolis') 32-bit
Библиотека кодирования : libebml v1.3.6 + libmatroska v1.4.9 / Lavf57.71.100
Видео
Идентификатор : 1
Формат : AVC
Формат/Информация : Advanced Video Codec
Профиль формата : [email protected]
Настройки формата : CABAC / 2 Ref Frames
Параметр CABAC формата : Да
Параметр RefFrames формата : 2 кадра
Идентификатор кодека : V_MPEG4/ISO/AVC
Продолжительность : 47 м. 10 с.
Битрейт : 2675 Кбит/сек
Ширина : 1920 пикселей
Высота : 1080 пикселей
Соотношение сторон : 16:9
Режим частоты кадров : Постоянный
Частота кадров : 25,000 кадров/сек
Цветовое пространство : YUV
Субдискретизация насыщенности : 4:2:0
Битовая глубина : 8 бит
Тип развёртки : Прогрессивная
Бит/(Пиксели*Кадры) : 0.052
Размер потока : 903 Мбайт (93%)
Default : Да
Forced : Нет
Цветовой диапазон : Limited
Основные цвета : BT.709
Характеристики трансфера : BT.709
Коэффициенты матрицы : BT.709
Аудио
Идентификатор : 2
Формат : AC-3
Формат/Информация : Audio Coding 3
Коммерческое название : Dolby Digital
Идентификатор кодека : A_AC3
Продолжительность : 47 м. 10 с.
Вид битрейта : Постоянный
Битрейт : 192 Кбит/сек
Каналы : 2 канала
Channel layout : L R
Частота : 48,0 КГц
Частота кадров : 31,250 кадров/сек (1536 SPF)
Битовая глубина : 16 бит
Метод сжатия : С потерями
Размер потока : 64,8 Мбайт (7%)
Язык : English
ServiceKind/String : Complete Main
Default : Да
Forced : Нет
Скриншоты:
[free-tor.com].t17170.torrent 
Торрент: Зарегистрирован [ 2018-10-13 07:57 ] · 61D47ECE2166C15ED9620CDAD59E4CC7AB45AC91

Скачать .torrent

Скачать .torrent

45 KB

Статус: проверено
.torrent скачан: 8 раз
Размер: 8,69 GB
Правила
Похожие темы
[Профиль] [ЛС]
Показать сообщения:    
Ответить на тему

Текущее время: 20-Ноя 00:41

Часовой пояс: UTC + 4



Вы не можете начинать темы
Вы не можете отвечать на сообщения
Вы не можете редактировать свои сообщения
Вы не можете удалять свои сообщения
Вы не можете голосовать в опросах
Вы не можете прикреплять файлы к сообщениям
Вы можете скачивать файлы
Анализ веб сайтов Яндекс.Метрика Рейтинг@Mail.ru