Сорвиголова / Daredevil (Фил Абрахам, Стивен Серджик, Питер Хор) [S03] [2018, фантастика, фэнтези, боевик, триллер, драма, криминал, WEBRip 2160p от MediaClub | LostFilm, BaibaKo]

Ответить на тему
Статистика раздачи [Обновить пиров]
Размер:  151,68 GB   |    Зарегистрирован:  1 месяц 16 дней   |    .torrent скачан:  3 раза
Сидов:  5  [  0 KB/s  ]   Личеров:  18  [  0 KB/s  ]   Подробная статистика пиров
 
   
 
 
Автор Сообщение

Skorp10n ®

Онлайн

 Активный раздающий 1 Активный раздающий 2
 Активный релизер 1000 Активный релизер 1500 Активный релизер 2000 Активный релизер 250 Активный релизер 3000 Активный релизер 500 Активный релизер 5000 Активный релизер Фильмов (1000) Активный релизер Фильмов (300) Активный релизер Фильмов (600) Активный Форумчанин 1 Активный Форумчанин 2 Активный Форумчанин 3 Активный Форумчанин 4 Друг трекера Карма 1000 Карма 1500 Карма 500 Меценат Ни дня без новостей Орденосец 1 степени Орденосец 2 степени Орденосец 3 степени Почетный орденосец Почетный репортер С Новым 2016 Годом! С Новым 2017 Годом! С Новым 2018 Годом! С Новым 2019 Годом! Супер Мега Контер Квейк ТОП-10

Пол: Мужской

Стаж: 3 года 5 месяцев

Наличие запрета:

Сообщений: 8357

Откуда: Казахстан, Караганда

Отдача: не определено

Загрузка: не определено

Нажми

Создавать темы 23-Окт-2018 18:48

[Цитировать]

Информация о фильме- Название: Сорвиголова
Оригинальное название: Daredevil
Год выхода: 2018
Жанр: Фантастика, фэнтези, боевик, триллер, драма, криминал
Режиссер: Фил Абрахам, Стивен Серджик, Питер Хор
В ролях: Чарли Кокс, Дебора Энн Уолл, Элден Хенсон, Розарио Доусон, Винсент Д`Онофрио, Айелет Зурер, Боб Гантон, Тоби Мур, Вонди Куртис-Холл, Роб Морган-О фильме:-Он живёт в мире вечной ночи, но эта темнота заполнена звуками и запахами, её можно попробовать на вкус и потрогать руками. Адвокат Мэтт Мёрдок слеп, но остальные органы чувств у него работают, как у супермена. Днём Мёрдок защищает униженных и оскорблённых в зале суда, а ночью превращается в супергероя в маске, восстанавливая справедливость на улицах города самыми радикальными методами.- -Страна: США
Студия: ABC Studios, DeKnight Productions, Goddard Textiles, Marvel Entertainment, Walt Disney Company
Продолжительность: 13 x ~00:53:00
Перевод: Профессиональный многоголосый, любительский многоголосый-Файл-Кодек: H.264
Качество: WEBRip 2160p
Видео: MPEG-4 AVC, [email protected], 8 bits, ~ 31.6 Mбит/с, 3840x2160, 23.976 кадр/с
Звук:
Русский (AC3, 6 ch, 384 Кбит/с) / Профессиональный многоголосый (LostFilm)
Русский (AC3, 6 ch, 384 Кбит/с) / Любительский многоголосый (Baibako)
Английский (E-AC3, 6 ch, 448 Кбит/с)
Субтитры: Русские, английские (Full, SDH)-Семпл-

MI

-General
Unique ID : 104015783404298778182586792705900282018 (0x4E40B610DB7EE9E29A464436455200A2)
Complete name : C:UsersPublicVideosSample VideosFilmyDaredevil.S03.2018.WEBRip.2160p.MediaClubMarvels.Daredevil.S03E01.2160p.WEBRip.MediaClub.mkv
Format : Matroska
Format version : Version 4
File size : 12.0 GiB
Duration : 53 min 23 s
Overall bit rate : 32.3 Mb/s
Encoded date : UTC 2018-10-23 10:58:23
Writing application : mkvmerge v25.0.0 ('Prog Noir') 64-bit
Writing library : libebml v1.3.6 + libmatroska v1.4.9
Cover : Yes
Attachments : cover.jpg
Video
ID : 1
Format : AVC
Format/Info : Advanced Video Codec
Format profile : [email protected]
Format settings : CABAC / 5 Ref Frames
Format settings, CABAC : Yes
Format settings, RefFrames : 5 frames
Codec ID : V_MPEG4/ISO/AVC
Duration : 52 min 31 s
Bit rate : 31.6 Mb/s
Width : 3 840 pixels
Height : 2 160 pixels
Display aspect ratio : 16:9
Frame rate mode : Constant
Frame rate : 23.976 (24000/1001) FPS
Color space : YUV
Chroma subsampling : 4:2:0
Bit depth : 8 bits
Scan type : Progressive
Bits/(Pixel*Frame) : 0.159
Stream size : 11.6 GiB (96%)
Title : WEBRip.2160p bu Silverok
Writing library : x264 core 157 r2932+2 (master: 303c484 / tmod: 1b88d0a) [X86_64]
Encoding settings : cabac=1 / ref=5 / deblock=1:-3:-3 / analyse=0x3:0x133 / me=umh / subme=11 / psy=1 / psy_rd=1.05:0.15 / mixed_ref=1 / me_range=48 / chroma_me=1 / trellis=2 / 8x8dct=1 / cqm=0 / deadzone=6,6 / fast_pskip=0 / chroma_qp_offset=-3 / threads=54 / lookahead_threads=13 / sliced_threads=0 / nr=0 / decimate=0 / interlaced=0 / bluray_compat=0 / constrained_intra=0 / bframes=10 / b_pyramid=2 / b_adapt=2 / b_bias=0 / direct=3 / weightb=1 / open_gop=0 / weightp=2 / keyint=250 / keyint_min=23 / scenecut=40 / intra_refresh=0 / rc=crf / mbtree=0 / crf=23.5 / qcomp=0.75 / qpmin=0 / qpmax=69 / qpstep=4 / ip_ratio=1.25 / pb_ratio=1.20 / aq=3:0.65
Default : Yes
Forced : No
Audio #1
ID : 2
Format : AC-3
Format/Info : Audio Coding 3
Commercial name : Dolby Digital
Codec ID : A_AC3
Duration : 53 min 23 s
Bit rate mode : Constant
Bit rate : 384 kb/s
Channel(s) : 6 channels
Channel layout : L R C LFE Ls Rs
Sampling rate : 48.0 kHz
Frame rate : 31.250 FPS (1536 SPF)
Bit depth : 16 bits
Compression mode : Lossy
Stream size : 147 MiB (1%)
Title : Профессиональный (многоголосый, закадровый) | LostFilm
Language : Russian
Service kind : Complete Main
Default : Yes
Forced : No
Audio #2
ID : 3
Format : AC-3
Format/Info : Audio Coding 3
Commercial name : Dolby Digital
Codec ID : A_AC3
Duration : 52 min 31 s
Bit rate mode : Constant
Bit rate : 384 kb/s
Channel(s) : 6 channels
Channel layout : L R C LFE Ls Rs
Sampling rate : 48.0 kHz
Frame rate : 31.250 FPS (1536 SPF)
Bit depth : 16 bits
Compression mode : Lossy
Stream size : 144 MiB (1%)
Title : Любительский (многоголосый закадровый) | Baibako
Language : Russian
Service kind : Complete Main
Default : No
Forced : No
Audio #3
ID : 4
Format : E-AC-3 JOC
Format/Info : Enhanced AC-3 with Joint Object Coding
Commercial name : Dolby Digital Plus with Dolby Atmos
Codec ID : A_EAC3
Duration : 52 min 31 s
Bit rate mode : Constant
Bit rate : 448 kb/s
Channel(s) : 6 channels
Channel layout : L R C LFE Ls Rs
Sampling rate : 48.0 kHz
Frame rate : 31.250 FPS (1536 SPF)
Compression mode : Lossy
Stream size : 168 MiB (1%)
Language : English
Service kind : Complete Main
Default : No
Forced : No
Complexity index : 16
Number of dynamic objects : 15
Bed channel count : 1 channel
Bed channel configuration : LFE
Text #1
ID : 5
Format : UTF-8
Codec ID : S_TEXT/UTF8
Codec ID/Info : UTF-8 Plain Text
Duration : 50 min 31 s
Bit rate : 73 b/s
Count of elements : 559
Stream size : 27.3 KiB (0%)
Title : Full
Language : Russian
Default : Yes
Forced : No
Text #2
ID : 6
Format : UTF-8
Codec ID : S_TEXT/UTF8
Codec ID/Info : UTF-8 Plain Text
Duration : 49 min 26 s
Bit rate : 52 b/s
Count of elements : 568
Stream size : 18.9 KiB (0%)
Title : Full
Language : English
Default : No
Forced : No
Text #3
ID : 7
Format : UTF-8
Codec ID : S_TEXT/UTF8
Codec ID/Info : UTF-8 Plain Text
Duration : 50 min 34 s
Bit rate : 56 b/s
Count of elements : 628
Stream size : 20.8 KiB (0%)
Title : SDH
Language : English
Default : No
Forced : No-
-

Скриншоты

--
-

О релизе

-Большая благодарность serial_M (CasStudio) за работу с дорожкой LostFilm-
-Релиз от: | Silverok-
[free-tor.com].t17367.torrent 
Торрент: Зарегистрирован [ 2018-12-02 22:04 ] · E79700027A81A5663CABBBE3D55E91FD4DCACBC1

Скачать .torrent

Скачать .torrent

381 KB

Статус: проверено
.torrent скачан: 3 раз
Размер: 151,68 GB
Правила
Похожие темы
[Профиль] [ЛС]
Показать сообщения:    
Ответить на тему

Текущее время: 18-Янв 22:28

Часовой пояс: UTC + 4



Вы не можете начинать темы
Вы не можете отвечать на сообщения
Вы не можете редактировать свои сообщения
Вы не можете удалять свои сообщения
Вы не можете голосовать в опросах
Вы не можете прикреплять файлы к сообщениям
Вы можете скачивать файлы
Анализ веб сайтов Яндекс.Метрика Рейтинг@Mail.ru