Флэш / The Flash (Дэвид Наттер) [05x01-21 из 22] [2018, фантастика, фэнтези, боевик, драма, приключения, WEB-DLRip-AVC от Kaztorrents | LostFilm]

Ответить на тему
Статистика раздачи [Обновить пиров]
Размер:  14,67 GB   |    Зарегистрирован:  7 дней   |    .torrent скачан:  3 раза
Сидов:  6  [  0 KB/s  ]   Личеров:  12  [  0 KB/s  ]   Подробная статистика пиров
 
   
 
 
Автор Сообщение

Skorp10n ®

Оффлайн

 Активный раздающий 1 Активный раздающий 2
 Активный релизер 1000 Активный релизер 1500 Активный релизер 2000 Активный релизер 250 Активный релизер 3000 Активный релизер 500 Активный релизер 5000 Активный релизер Фильмов (1000) Активный релизер Фильмов (300) Активный релизер Фильмов (600) Активный Форумчанин 1 Активный Форумчанин 2 Активный Форумчанин 3 Активный Форумчанин 4 Друг трекера Карма 1000 Карма 1500 Карма 3000 Карма 500 Меценат Ни дня без новостей Орденосец 1 степени Орденосец 2 степени Орденосец 3 степени Почетный орденосец Почетный репортер С Новым 2016 Годом! С Новым 2017 Годом! С Новым 2018 Годом! С Новым 2019 Годом! Супер Мега Контер Квейк ТОП-10

Пол: Мужской

Стаж: 3 года 9 месяцев

Наличие запрета:

Сообщений: 10472

Откуда: Free-Tor.com

Отдача: не определено

Загрузка: не определено

Нажми

Создавать темы 25-Окт-2018 23:36

[Цитировать]

✦ Флэш / The Flash ✦-Информация о фильме:- ❖ Страна: США
❖ Производство: Berlanti Productions, DC Entertainment, Warner Bros. Television
❖ Год выпуска: 2018
❖ Жанр: фантастика, фэнтези, боевик, драма, приключения
❖ Режиссер: Дэвид Наттер
❖ В ролях: Грант Гастин, Кэндис Паттон, Рик Коснетт, Даниэль Панабэйкер, Карлос Вальдес, Томас Кэвэна, Джесси Л. Мартин, Джон Уэсли Шипп, Стивен Амелл, Ёсиэ Бэнкрофт и др.-❖ Перевод: Профессиональный (многоголосый закадровый)[LostFilm]-Описание фильма:-Из-за несчастного случая судмедэксперт Барри Аллен приобретает способность передвигаться с невероятной скоростью. Этот случай делает из него супергероя, которым он всегда мечтал стать. Защищая город, как ангел-хранитель, делая невозможное, спасая жизни со скоростью вспышки, по подсказке Оливера Куина (Стрела), он берёт себе и соответствующее имя - Флэш.- -Релиз:
Автор рипа: ProT1gR
Отдельная благодарность за помощь в релизе - [[email protected]] -❖ Качество: WEB-DLRip-AVC | чистый видеоряд
❖ Продолжительность: по ~ 00:43:00-Технические данные файла:-❖ Формат: MKV
❖ Видео кодек: MPEG-4 AVC
❖ Аудио кодек: AC3
❖ Видео: 1024x576 (16:9), 23.976 fps, ~2000 kbps (0.141 bit/pixel)
❖ Аудио #1: AC3, 48.0 KHz, 6 ch, 384 kbps | Rus
-

MI

-General
Unique ID : 210170177906990195777209934816719138239 (0x9E1D4DCCB4EAF43BB77D80D610EBEDBF)
Complete name : The.Flash.2014.S05.WEB-DLRip-AVC.[by Kaztorrents]The.Flash.2014.S05E01.Nora.WEB-DLRip-AVC.[by Kaztorrents].mkv
Format : Matroska
Format version : Version 2
File size : 722 MiB
Duration : 42 min 19 s
Overall bit rate : 2 386 kb/s
Encoded date : UTC 2018-10-23 13:54:44
Writing application : mkvmerge v7.8.0 ('River Man') 32bit built on Apr 3 2015 12:11:22
Writing library : libebml v1.3.1 + libmatroska v1.4.2
Video
ID : 1
Format : AVC
Format/Info : Advanced Video Codec
Format profile : [email protected]
Format settings, CABAC : Yes
Format settings, ReFrames : 12 frames
Codec ID : V_MPEG4/ISO/AVC
Duration : 42 min 19 s
Bit rate : 2 000 kb/s
Width : 1 024 pixels
Height : 576 pixels
Display aspect ratio : 16:9
Frame rate mode : Constant
Frame rate : 23.976 (24000/1001) FPS
Color space : YUV
Chroma subsampling : 4:2:0
Bit depth : 8 bits
Scan type : Progressive
Bits/(Pixel*Frame) : 0.141
Stream size : 591 MiB (82%)
Writing library : x264 core 146 r2538 121396c
Encoding settings : cabac=1 / ref=12 / deblock=1:-2:-2 / analyse=0x3:0x113 / me=umh / subme=10 / psy=1 / psy_rd=1.00:0.00 / mixed_ref=1 / me_range=32 / chroma_me=1 / trellis=2 / 8x8dct=1 / cqm=0 / deadzone=21,11 / fast_pskip=0 / chroma_qp_offset=-2 / threads=6 / lookahead_threads=1 / sliced_threads=0 / nr=0 / decimate=1 / interlaced=0 / bluray_compat=0 / constrained_intra=0 / bframes=10 / b_pyramid=2 / b_adapt=2 / b_bias=0 / direct=3 / weightb=1 / open_gop=0 / weightp=2 / keyint=240 / keyint_min=23 / scenecut=40 / intra_refresh=0 / rc_lookahead=40 / rc=2pass / mbtree=0 / bitrate=2000 / ratetol=1.0 / qcomp=0.60 / qpmin=0 / qpmax=69 / qpstep=4 / cplxblur=20.0 / qblur=0.5 / vbv_maxrate=50000 / vbv_bufsize=62500 / nal_hrd=none / filler=0 / ip_ratio=1.40 / pb_ratio=1.30 / aq=1:1.00
Default : Yes
Forced : No
Audio
ID : 2
Format : AC-3
Format/Info : Audio Coding 3
Mode extension : CM (complete main)
Format settings, Endianness : Big
Codec ID : A_AC3
Duration : 42 min 19 s
Bit rate mode : Constant
Bit rate : 384 kb/s
Channel(s) : 6 channels
Channel positions : Front: L C R, Side: L R, LFE
Sampling rate : 48.0 kHz
Frame rate : 31.250 FPS (1536 spf)
Bit depth : 16 bits
Compression mode : Lossy
Stream size : 116 MiB (16%)
Default : Yes
Forced : No-
-

Скриншоты

--
-
[free-tor.com].t17408.torrent 
Торрент: Зарегистрирован [ 2019-05-15 12:17 ] · BD6215BBF2CDA98DD8534316BB8A5CBFE6C09573

Скачать .torrent

Скачать .torrent

150 KB

Статус: проверено
.torrent скачан: 3 раз
Размер: 14,67 GB
Правила
Похожие темы

[Профиль] [ЛС]
Показать сообщения:    
Ответить на тему

Текущее время: 22-Май 20:37

Часовой пояс: UTC + 4



Вы не можете начинать темы
Вы не можете отвечать на сообщения
Вы не можете редактировать свои сообщения
Вы не можете удалять свои сообщения
Вы не можете голосовать в опросах
Вы не можете прикреплять файлы к сообщениям
Вы можете скачивать файлы
Анализ веб сайтов Яндекс.Метрика