Сорвиголова / Daredevil (Фил Абрахам, Фэррен Блэкберн, Стивен С. ДеНайт) [03х01-09 из 13] [2018, фантастика, боевик, WEBRip-HEVC 2160p от MediaClub | 4K | HDR | LostFilm, Baibako]

Ответить на тему
Статистика раздачи [Обновить пиров]
Размер:  71,43 GB   |    Зарегистрирован:  8 часов   |    .torrent скачан:  5 раз
Сидов:  4  [  0 KB/s  ]   Личеров:  5  [  0 KB/s  ]   Подробная статистика пиров
 
   
 
 
Автор Сообщение

Skorp10n ®

Оффлайн

 Активный раздающий 1 Активный раздающий 2
 Активный релизер 1000 Активный релизер 1500 Активный релизер 2000 Активный релизер 250 Активный релизер 3000 Активный релизер 500 Активный релизер 5000 Активный релизер Фильмов (1000) Активный релизер Фильмов (300) Активный релизер Фильмов (600) Активный Форумчанин 1 Активный Форумчанин 2 Активный Форумчанин 3 Активный Форумчанин 4 Друг трекера Карма 1000 Карма 1500 Карма 500 Меценат Ни дня без новостей Орденосец 1 степени Орденосец 2 степени Орденосец 3 степени Почетный орденосец Почетный репортер С Новым 2016 Годом! С Новым 2017 Годом! С Новым 2018 Годом! Супер Мега Контер Квейк ТОП-10

Пол: Мужской

Стаж: 3 года 3 месяца

Наличие запрета:

Сообщений: 7282

Откуда: Казахстан, Караганда

Отдача: не определено

Загрузка: не определено

Нажми

Создавать темы 28-Окт-2018 23:23

[Цитировать]

Информация о фильме- Название: Сорвиголова
Оригинальное название: Daredevil
Год выхода: 2018
Жанр: Фантастика, боевик
Режиссер: Фил Абрахам, Фэррен Блэкберн, Стивен С. ДеНайт
В ролях: Чарли Кокс, Дебора Энн Уолл, Элден Хенсон, Розарио Доусон, Винсент Д`Онофрио, Айелет Зурер, Боб Гантон, Тоби Мур, Вонди Куртис-Холл, Роб Морган-О фильме:-Он живёт в мире вечной ночи, но эта темнота заполнена звуками и запахами, её можно попробовать на вкус и потрогать руками. Адвокат Мэтт Мёрдок слеп, но остальные органы чувств у него работают, как у супермена. Днём Мёрдок защищает униженных и оскорблённых в зале суда, а ночью превращается в супергероя в маске, восстанавливая справедливость на улицах города самыми радикальными методами.- -Страна: США
Студия: ABC Television Studio, Marvel Entertainment
Продолжительность: 9 x ~00:53:00
Перевод: Профессиональный многоголосый-Файл-Кодек: H.265
Качество: WEBRip-HEVC 2160p
Видео: HEVC HDR, ~ 23.0 Mбит/с, 3840x2160, 23.976 кадр/с
Звук:
Русский (AC3, 6 ch, 448 Кбит/с) / Профессиональный многоголосый (LostFilm)
Русский (AC3, 6 ch, 384 Кбит/с) / Любительский многоголосый (Baibako)
Английский (E-AC3, 6 ch, 448 Кбит/с)
Субтитры: Русские, английские (Full, SDH)-Семпл-

Раздача ведётся путём добавления новых серий!

-Раздача ведётся путём добавления новых серий; при каждом добавлении создаётся новый торрент.
Чтобы начать докачку новой серии, пользователям необходимо сделать следующее:
1. остановить скачивание,
2. удалить старый торрент у себя из клиента (старые серии удалять не надо),
3. скачать новый торрент и запустить его у себя в клиенте вместо старого, при этом указать клиенту путь в старую папку, куда и должно происходить скачивание новых серий.
Ваш клиент при этом должен произвести хеширование (проверку) старой папки (если не производит сам - помогите ему сделать это), и будет докачивать только те серии которых у вас ещё нет. Старые серии при этом не удаляются, а продолжают раздаваться!
Eсли вы уже удалили старые серии, то предотвратить повторную закачку старых серий можно, отжав галочку в соответствующих местах при запуске нового торрента. По возможности, желательно не удалять старые серии как можно дольше, чтобы релизёр не столько продолжал раздавать старые серии, а смог сконцентрироваться на новых.
Совет для тех, кто не хочет ждать перехеширования:
Создайте ещё одну папку рядом с папкой сериала (рядом, а не в ней!!!). Каждую новую серию после удачной загрузки копируйте в новую папку так чтобы ваша основная папка всегда была пуста. Когда ваш новый торрент предложит вам закачать все файлы, выберете только последнюю. Для сидирования же укажите адрес новой папки.-
-

MI

-General
Unique ID : 205324007890363538910863432605508948395 (0x9A77F72BA5E19985C92EAE65C791D1AB)
Complete name : D:uTorrentDaredevil.S03.2018.WEBRip.2160p.HDR.MediaClubMarvels.Daredevil.S03E02.2160p.HDR.WEBRip.MediaClub.mkv
Format : Matroska
Format version : Version 4
File size : 8.27 GiB
Duration : 49 min 37 s
Overall bit rate : 23.9 Mb/s
Encoded date : UTC 2018-10-28 14:13:55
Writing application : mkvmerge v28.2.0 ('The Awakening') 64-bit
Writing library : libebml v1.3.6 + libmatroska v1.4.9
Cover : Yes
Attachments : cover.jpg
Video
ID : 1
Format : HEVC
Format/Info : High Efficiency Video Coding
Commercial name : HDR10
Format profile : Main [email protected]@High
Codec ID : V_MPEGH/ISO/HEVC
Duration : 48 min 43 s
Bit rate : 23.0 Mb/s
Width : 3 840 pixels
Height : 2 160 pixels
Display aspect ratio : 16:9
Frame rate mode : Constant
Frame rate : 23.976 (24000/1001) FPS
Color space : YUV
Chroma subsampling : 4:2:0 (Type 2)
Bit depth : 10 bits
Bits/(Pixel*Frame) : 0.116
Stream size : 7.83 GiB (95%)
Title : WEBRip.2160p.HDR by Silverok
Writing library : x265 2.8+68-fa57fa584898:[Linux][GCC 7.3.0][64 bit] 10bit
Encoding settings : cpuid=1111039 / frame-threads=6 / wpp / no-pmode / no-pme / no-psnr / no-ssim / log-level=2 / input-csp=1 / input-res=3840x2160 / interlace=0 / total-frames=0 / level-idc=51 / high-tier=1 / uhd-bd=0 / ref=4 / no-allow-non-conformance / repeat-headers / annexb / no-aud / no-hrd / info / hash=0 / no-temporal-layers / open-gop / min-keyint=23 / keyint=250 / gop-lookahead=0 / bframes=11 / b-adapt=2 / b-pyramid / bframe-bias=0 / rc-lookahead=25 / lookahead-slices=4 / scenecut=40 / radl=0 / no-intra-refresh / ctu=64 / min-cu-size=8 / rect / no-amp / max-tu-size=32 / tu-inter-depth=1 / tu-intra-depth=1 / limit-tu=0 / rdoq-level=2 / dynamic-rd=0.00 / no-ssim-rd / signhide / no-tskip / nr-intra=0 / nr-inter=0 / no-constrained-intra / strong-intra-smoothing / max-merge=3 / limit-refs=3 / limit-modes / me=2 / subme=6 / merange=57 / temporal-mvp / weightp / no-weightb / no-analyze-src-pics / deblock=-3:-3 / no-sao / no-sao-non-deblock / rd=4 / no-early-skip / no-rskip / no-fast-intra / no-tskip-fast / no-cu-lossless / no-b-intra / no-splitrd-skip / rdpenalty=0 / psy-rd=4.00 / psy-rdoq=10.00 / no-rd-refine / no-lossless / cbqpoffs=0 / crqpoffs=0 / rc=crf / crf=22.0 / qcomp=0.60 / qpstep=1 / stats-write=0 / stats-read=0 / vbv-maxrate=160000 / vbv-bufsize=160000 / vbv-init=0.9 / crf-max=0.0 / crf-min=0.0 / ipratio=1.25 / pbratio=1.20 / aq-mode=3 / aq-strength=0.65 / no-cutree / zone-count=0 / no-strict-cbr / qg-size=32 / rc-grain / qpmax=69 / qpmin=0 / const-vbv / sar=1 / overscan=0 / videoformat=5 / range=0 / colorprim=9 / transfer=16 / colormatrix=9 / chromaloc=1 / chromaloc-top=2 / chromaloc-bottom=2 / display-window=0 / master-display=G(13250,34500)B(7500,3000)R(34000,16000)WP(15635,16450)L(40000000,50) / max-cll=10000,1288 / min-luma=0 / max-luma=1023 / log2-max-poc-lsb=8 / vui-timing-info / vui-hrd-info / slices=1 / no-opt-qp-pps / no-opt-ref-list-length-pps / no-multi-pass-opt-rps / scenecut-bias=0.05 / no-opt-cu-delta-qp / no-aq-motion / hdr / hdr-opt / no-dhdr10-opt / no-idr-recovery-sei / analysis-reuse-level=5 / scale-factor=0 / refine-intra=0 / refine-inter=0 / refine-mv=0 / no-limit-sao / ctu-info=0 / no-lowpass-dct / refine-mv-type=0 / copy-pic=1 / max-ausize-factor=1.0 / no-dynamic-refine / no-single-sei
Default : Yes
Forced : No
Color range : Limited
Color primaries : BT.2020
Transfer characteristics : PQ
Matrix coefficients : BT.2020 non-constant
Mastering display color primaries : Display P3
Mastering display luminance : min: 0.0050 cd/m2, max: 4000 cd/m2
Maximum Content Light Level : 10000 cd/m2
Maximum Frame-Average Light Level : 1288 cd/m2
Audio #1
ID : 2
Format : AC-3
Format/Info : Audio Coding 3
Commercial name : Dolby Digital
Codec ID : A_AC3
Duration : 49 min 37 s
Bit rate mode : Constant
Bit rate : 448 kb/s
Channel(s) : 6 channels
Channel layout : L R C LFE Ls Rs
Sampling rate : 48.0 kHz
Frame rate : 31.250 FPS (1536 SPF)
Bit depth : 16 bits
Compression mode : Lossy
Stream size : 159 MiB (2%)
Title : Профессиональный (многоголосый, закадровый) | LostFilm
Language : Russian
Service kind : Complete Main
Default : Yes
Forced : No
Audio #2
ID : 3
Format : AC-3
Format/Info : Audio Coding 3
Commercial name : Dolby Digital
Codec ID : A_AC3
Duration : 48 min 44 s
Bit rate mode : Constant
Bit rate : 384 kb/s
Channel(s) : 6 channels
Channel layout : L R C LFE Ls Rs
Sampling rate : 48.0 kHz
Frame rate : 31.250 FPS (1536 SPF)
Bit depth : 16 bits
Compression mode : Lossy
Stream size : 134 MiB (2%)
Title : Любительский (многоголосый закадровый) | Baibako
Language : Russian
Service kind : Complete Main
Default : No
Forced : No
Audio #3
ID : 4
Format : E-AC-3 JOC
Format/Info : Enhanced AC-3 with Joint Object Coding
Commercial name : Dolby Digital Plus with Dolby Atmos
Codec ID : A_EAC3
Duration : 48 min 44 s
Bit rate mode : Constant
Bit rate : 448 kb/s
Channel(s) : 6 channels
Channel layout : L R C LFE Ls Rs
Sampling rate : 48.0 kHz
Frame rate : 31.250 FPS (1536 SPF)
Compression mode : Lossy
Stream size : 156 MiB (2%)
Language : English
Service kind : Complete Main
Default : No
Forced : No
Complexity index : 16
Number of dynamic objects : 15
Bed channel count : 1 channel
Bed channel configuration : LFE
Text #1
ID : 5
Format : UTF-8
Codec ID : S_TEXT/UTF8
Codec ID/Info : UTF-8 Plain Text
Duration : 47 min 24 s
Bit rate : 83 b/s
Count of elements : 589
Stream size : 29.0 KiB (0%)
Title : Full
Language : Russian
Default : Yes
Forced : No
Text #2
ID : 6
Format : UTF-8
Codec ID : S_TEXT/UTF8
Codec ID/Info : UTF-8 Plain Text
Duration : 46 min 19 s
Bit rate : 58 b/s
Count of elements : 592
Stream size : 19.9 KiB (0%)
Title : Full
Language : English
Default : No
Forced : No
Text #3
ID : 7
Format : UTF-8
Codec ID : S_TEXT/UTF8
Codec ID/Info : UTF-8 Plain Text
Duration : 46 min 26 s
Bit rate : 65 b/s
Count of elements : 662
Stream size : 22.1 KiB (0%)
Title : SDH
Language : English
Default : No
Forced : No-
-

Скриншоты

--
-Релиз от: | Silverok-
[free-tor.com].t17467.torrent 
Торрент: Зарегистрирован [ Вчера, в 15:04 ] · D807027CB71CE86CBE97BF293EAC61DC07198D5E

Скачать .torrent

Скачать .torrent

180 KB

Статус: проверено
.torrent скачан: 5 раз
Размер: 71,43 GB
Правила
Похожие темы
[Профиль] [ЛС]
Показать сообщения:    
Ответить на тему

Текущее время: 20-Ноя 00:00

Часовой пояс: UTC + 4



Вы не можете начинать темы
Вы не можете отвечать на сообщения
Вы не можете редактировать свои сообщения
Вы не можете удалять свои сообщения
Вы не можете голосовать в опросах
Вы не можете прикреплять файлы к сообщениям
Вы можете скачивать файлы
Анализ веб сайтов Яндекс.Метрика Рейтинг@Mail.ru