Основано на реальных событиях / D'après une histoire vraie (Роман Полански) [2017, триллер, драма, детектив, BDRemux 1080p от селезень | iTunes]

Тема закрыта
 
Автор Сообщение

Skorp10n ®

Оффлайн

 Активный раздающий 1 Активный раздающий 2
 Активный релизер 1000 Активный релизер 1500 Активный релизер 2000 Активный релизер 250 Активный релизер 3000 Активный релизер 500 Активный релизер 5000 Активный релизер Фильмов (1000) Активный релизер Фильмов (300) Активный релизер Фильмов (600) Активный Форумчанин 1 Активный Форумчанин 2 Активный Форумчанин 3 Активный Форумчанин 4 Друг трекера Карма 1000 Карма 1500 Карма 500 Меценат Ни дня без новостей Орденосец 1 степени Орденосец 2 степени Орденосец 3 степени Почетный орденосец Почетный репортер С Новым 2016 Годом! С Новым 2017 Годом! С Новым 2018 Годом! Супер Мега Контер Квейк ТОП-10

Пол: Мужской

Стаж: 3 года 4 месяца

Наличие запрета:

Сообщений: 7773

Откуда: Казахстан, Караганда

Отдача: не определено

Загрузка: не определено

Нажми

Создавать темы 08-Ноя-2018 16:45

[Цитировать]

Информация о фильме- Название: Основано на реальных событиях
Оригинальное название: D'après une histoire vraie
Год выхода: 2017
Жанр: Триллер, драма, детектив
Режиссер: Роман Полански
В ролях: Эмманюэль Сенье, Ева Грин, Венсан Перес, Доминик Пинон, Камиль Шаму, Брижит Роюан, Жозе Дайан, Ноэми Львовски, Леонелло Брандолини, Элизабет Куин- -О фильме: Измученную фанатами и терзаемую горькими воспоминаниями Дельфин бомбардируют анонимками, обвиняющими ее в том, что она пожертвовала собственной семьей. Писательница в творческом кризисе, ее парализует сама мысль о том, чтобы начать писать снова.-Страна: Франция, Польша, Бельгия
Студия: Belga Productions, Canal+ [fr], Ciné, France Télévisions
Продолжительность: 01:41:07
Перевод: Дублированный | iTunes-Качество: BDRemux 1080p
Видео: MPEG-4 AVC, 1920x1080, 25.0 Mbit/s, 24.000 fps
Звук:
Аудио #01: 48 kHz, AC3, 5.1, 384 Kbps | iTunes | RUS |
Аудио #02: 48 kHz, DTS-HD MA, 5.1, 3367 Kbps | Оригинал | FRE |
Субтитры: Русские-

Скриншоты

--
-

MI

-General
Unique ID : 295774345449905678743217906842822242642 (0xDE84111E48C3CB11817031D23887F152)
Complete name : D:Video111D.Apres.Une.Histoire.Vraie.2017.BDREMUX.1080p.selezen.mkv
Format : Matroska
Format version : Version 4
File size : 20.3 GiB
Duration : 1 h 41 min
Overall bit rate mode : Variable
Overall bit rate : 28.8 Mb/s
Movie name : D'après une Histoire Vraie 2017 from селезень
Encoded date : UTC 2018-11-07 17:56:36
Writing application : mkvmerge v28.0.0 ('Voice In My Head') 64-bit
Writing library : libebml v1.3.6 + libmatroska v1.4.9
Cover : Yes
Attachments : cover.jpg
Video
ID : 1
Format : AVC
Format/Info : Advanced Video Codec
Format profile : [email protected]
Format settings : CABAC / 3 Ref Frames
Format settings, CABAC : Yes
Format settings, ReFrames : 3 frames
Format settings, GOP : M=3, N=12
Codec ID : V_MPEG4/ISO/AVC
Duration : 1 h 41 min
Bit rate mode : Variable
Bit rate : 25.0 Mb/s
Maximum bit rate : 34.5 Mb/s
Width : 1 920 pixels
Height : 1 080 pixels
Display aspect ratio : 16:9
Frame rate mode : Constant
Frame rate : 24.000 FPS
Standard : NTSC
Color space : YUV
Chroma subsampling : 4:2:0
Bit depth : 8 bits
Scan type : Progressive
Bits/(Pixel*Frame) : 0.502
Stream size : 17.7 GiB (87%)
Language : French
Default : Yes
Forced : No
Color range : Limited
Color primaries : BT.709
Transfer characteristics : BT.709
Matrix coefficients : BT.709
Audio #1
ID : 2
Format : AC-3
Format/Info : Audio Coding 3
Commercial name : Dolby Digital
Codec ID : A_AC3
Duration : 1 h 41 min
Bit rate mode : Constant
Bit rate : 384 kb/s
Channel(s) : 6 channels
Channel layout : L R C LFE Ls Rs
Sampling rate : 48.0 kHz
Frame rate : 31.250 FPS (1536 SPF)
Bit depth : 16 bits
Compression mode : Lossy
Stream size : 278 MiB (1%)
Title : iTunes
Language : Russian
Service kind : Complete Main
Default : Yes
Forced : Yes
Audio #2
ID : 3
Format : DTS XLL
Format/Info : Digital Theater Systems
Commercial name : DTS-HD Master Audio
Codec ID : A_DTS
Duration : 1 h 41 min
Bit rate mode : Variable
Bit rate : 3 367 kb/s
Channel(s) : 6 channels
Channel layout : C L R Ls Rs LFE
Sampling rate : 48.0 kHz
Frame rate : 93.750 FPS (512 SPF)
Bit depth : 24 bits
Compression mode : Lossless
Stream size : 2.38 GiB (12%)
Title : Original
Language : French
Default : No
Forced : No
Text
ID : 4
Format : UTF-8
Codec ID : S_TEXT/UTF8
Codec ID/Info : UTF-8 Plain Text
Duration : 1 h 35 min
Bit rate : 81 b/s
Count of elements : 1226
Stream size : 57.5 KiB (0%)
Title : Full
Language : Russian
Default : No
Forced : No
Menu
00:00:00.000 : en:Chapter 1
00:05:15.333 : en:Chapter 2
00:11:46.750 : en:Chapter 3
00:18:48.000 : en:Chapter 4
00:28:29.666 : en:Chapter 5
00:36:41.333 : en:Chapter 6
00:48:39.708 : en:Chapter 7
01:01:00.333 : en:Chapter 8
01:11:11.916 : en:Chapter 9
01:20:10.958 : en:Chapter 10
01:32:13.250 : en:Chapter 11
01:36:48.666 : en:Chapter 12-
-Релиз от: -
[free-tor.com].t17609.torrent
Торрент: Не зарегистрирован

Скачать .torrent

Скачать .torrent

103 KB

Добавлен: 2018-11-08 16:43
Скачано: 2 раз
   
[Профиль] [ЛС]

Skorp10n ®

Оффлайн

 Активный раздающий 1 Активный раздающий 2
 Активный релизер 1000 Активный релизер 1500 Активный релизер 2000 Активный релизер 250 Активный релизер 3000 Активный релизер 500 Активный релизер 5000 Активный релизер Фильмов (1000) Активный релизер Фильмов (300) Активный релизер Фильмов (600) Активный Форумчанин 1 Активный Форумчанин 2 Активный Форумчанин 3 Активный Форумчанин 4 Друг трекера Карма 1000 Карма 1500 Карма 500 Меценат Ни дня без новостей Орденосец 1 степени Орденосец 2 степени Орденосец 3 степени Почетный орденосец Почетный репортер С Новым 2016 Годом! С Новым 2017 Годом! С Новым 2018 Годом! Супер Мега Контер Квейк ТОП-10

Пол: Мужской

Стаж: 3 года 4 месяца

Наличие запрета:

Сообщений: 7773

Откуда: Казахстан, Караганда

Отдача: не определено

Загрузка: не определено

Нажми

Создавать темы 05-Дек-2018 14:06 (спустя 26 дней)

[Цитировать]

Закрыто по просьбе правообладателя!-
[Профиль] [ЛС]

Создавать темы 05-Дек-2018 14:06 (спустя 10 секунд)

Топик был перенесен из форума Зарубежные фильмы в высоком качестве в форум Архив
Причина переноса: Закрыто по просьбе правообладателя!
Skorp10n
 
Показать сообщения:    
Тема закрыта

Текущее время: 19-Дек 03:10

Часовой пояс: UTC + 4



Вы не можете начинать темы
Вы не можете отвечать на сообщения
Вы не можете редактировать свои сообщения
Вы не можете удалять свои сообщения
Вы не можете голосовать в опросах
Вы не можете прикреплять файлы к сообщениям
Вы можете скачивать файлы
Анализ веб сайтов Яндекс.Метрика Рейтинг@Mail.ru