Мальчишник в Европе / Budapest (Ксавье Жанс) [2018, комедия, WEB-DL 1080p от and77200 | iTunes]

Ответить на тему
Статистика раздачи [Обновить пиров]
Размер:  3,64 GB   |    Зарегистрирован:  8 дней   |    .torrent скачан:  3 раза
Сидов:  344  [  0 KB/s  ]   Личеров:  27  [  0 KB/s  ]   Подробная статистика пиров
 
   
 
 
Автор Сообщение

Skorp10n ®

Оффлайн

 Активный раздающий 1 Активный раздающий 2
 Активный релизер 1000 Активный релизер 1500 Активный релизер 2000 Активный релизер 250 Активный релизер 3000 Активный релизер 500 Активный релизер 5000 Активный релизер Фильмов (1000) Активный релизер Фильмов (300) Активный релизер Фильмов (600) Активный Форумчанин 1 Активный Форумчанин 2 Активный Форумчанин 3 Активный Форумчанин 4 Друг трекера Карма 1000 Карма 1500 Карма 500 Меценат Ни дня без новостей Орденосец 1 степени Орденосец 2 степени Орденосец 3 степени Почетный орденосец Почетный репортер С Новым 2016 Годом! С Новым 2017 Годом! С Новым 2018 Годом! Супер Мега Контер Квейк ТОП-10

Пол: Мужской

Стаж: 3 года 3 месяца

Наличие запрета:

Сообщений: 7233

Откуда: Казахстан, Караганда

Отдача: не определено

Загрузка: не определено

Нажми

Создавать темы 08-Ноя-2018 17:27

[Цитировать]

Название: Мальчишник в Европе
Оригинальное название: Budapest
Год выхода: 2018
Жанр: комедия-Режиссер: Ксавье Жанс / Xavier Gens
В ролях: Маню Пайе (Vincent), Джонатан Коэн (Arnaud), Amélina Limousin, Алис Белаиди (Cécile), Камилль Зорель (Party Girl), Аликс Пуасон (Audrey), Виктор Артус Соларо (Elias), Али Мархьяр (Rémi), Артур Бензакен (Gabor), Антуан Гуи (Tristan), Мари Ковач (Demoiselle d'honneur), Месье Пуп (Georgio)-О фильме: Надоела работа? Достали коллеги? Ответ очевиден - бросить все, уехать в Будапешт и начать закатывать вечеринки для холостяков. С покером, обнаженными красотками и катанием на танках. Отрыв по полной!- -Страна: Франция, Бельгия
Продолжительность: 01:42:19
Перевод: Профессиональный (полное дублирование) [iTunes]-Формат: MKV
Качество: WEB-DL 1080p
Видео: MPEG-4 AVC, 1920x858 (2.25:1), 4 708 kbps, 24.000 fps, 0,119 bpp
Аудио: Русский / AC3 / 5.1 / 48 kHz / 384 kbps / 16 bit-Релиз от: - -

Скриншоты

--
-

Media Info

-General
Unique ID : 305324730716377186540191965245728157836 (0xE5B3677759391B01A72441160908F08C)
Complete name : E:Budapest.2018.WEB-DL.1080p.and77200.mkv
Format : Matroska
Format version : Version 4 / Version 2
File size : 3.64 GiB
Duration : 1 h 42 min
Overall bit rate : 5 094 kb/s
Movie name : Мальчишник в Европе. 2018 - and77200
Encoded date : UTC 2018-11-06 12:47:33
Writing application : mkvmerge v20.0.0 ('I Am The Sun') 64-bit
Writing library : libebml v1.3.5 + libmatroska v1.4.8
Video
ID : 1
Format : AVC
Format/Info : Advanced Video Codec
Format profile : [email protected]
Format settings, CABAC : Yes
Format settings, ReFrames : 5 frames
Codec ID : V_MPEG4/ISO/AVC
Duration : 1 h 42 min
Bit rate : 4 708 kb/s
Width : 1 920 pixels
Height : 858 pixels
Display aspect ratio : 2.25:1
Frame rate mode : Constant
Frame rate : 24.000 FPS
Color space : YUV
Chroma subsampling : 4:2:0
Bit depth : 8 bits
Scan type : Progressive
Bits/(Pixel*Frame) : 0.119
Stream size : 3.37 GiB (92%)
Language : English
Default : Yes
Forced : No
Color range : Limited
Color primaries : BT.709
Transfer characteristics : BT.709
Matrix coefficients : BT.709
Audio
ID : 2
Format : AC-3
Format/Info : Audio Coding 3
Mode extension : CM (complete main)
Format settings, Endianness : Big
Codec ID : A_AC3
Duration : 1 h 42 min
Bit rate mode : Constant
Bit rate : 384 kb/s
Channel(s) : 6 channels
Channel positions : Front: L C R, Side: L R, LFE
Sampling rate : 48.0 kHz
Frame rate : 31.250 FPS (1536 spf)
Bit depth : 16 bits
Compression mode : Lossy
Delay relative to video : -42 ms
Stream size : 281 MiB (8%)
Title : iTunes
Language : Russian
Default : Yes
Forced : No
Menu
00:00:00.000 : en:Глава 1
00:07:37.625 : en:Глава 2
00:16:28.041 : en:Глава 3
00:23:56.666 : en:Глава 4
00:31:26.416 : en:Глава 5
00:38:45.207 : en:Глава 6
00:46:46.207 : en:Глава 7
00:54:19.290 : en:Глава 8
01:01:38.081 : en:Глава 9
01:09:57.205 : en:Глава 10
01:17:42.037 : en:Глава 11
01:25:04.619 : en:Глава 12
01:32:37.576 : en:Глава 13-
-
[free-tor.com].t17618.torrent 
Торрент: Зарегистрирован [ 2018-11-08 17:27 ] · B86D78E5C1679CAC87CA87428D87AC0AF276D5E2

Скачать .torrent

Скачать .torrent

74 KB

Статус: проверено
.torrent скачан: 3 раз
Размер: 3,64 GB
Правила
Похожие темы
[Профиль] [ЛС]
Показать сообщения:    
Ответить на тему

Текущее время: 17-Ноя 03:13

Часовой пояс: UTC + 4



Вы не можете начинать темы
Вы не можете отвечать на сообщения
Вы не можете редактировать свои сообщения
Вы не можете удалять свои сообщения
Вы не можете голосовать в опросах
Вы не можете прикреплять файлы к сообщениям
Вы можете скачивать файлы
Анализ веб сайтов Яндекс.Метрика Рейтинг@Mail.ru