Окончательный счёт / Final Score (Скотт Манн) [2018, боевик, BDRemux 1080p от селезень | HDRezka Studio]

Ответить на тему
Статистика раздачи [Обновить пиров]
Размер:  19,24 GB   |    Зарегистрирован:  8 дней   |    .torrent скачан:  4 раза
Сидов:  24  [  0 KB/s  ]   Личеров:  4  [  0 KB/s  ]   Подробная статистика пиров
 
   
 
 
Автор Сообщение

Skorp10n ®

Оффлайн

 Активный раздающий 1 Активный раздающий 2
 Активный релизер 1000 Активный релизер 1500 Активный релизер 2000 Активный релизер 250 Активный релизер 3000 Активный релизер 500 Активный релизер 5000 Активный релизер Фильмов (1000) Активный релизер Фильмов (300) Активный релизер Фильмов (600) Активный Форумчанин 1 Активный Форумчанин 2 Активный Форумчанин 3 Активный Форумчанин 4 Друг трекера Карма 1000 Карма 1500 Карма 500 Меценат Ни дня без новостей Орденосец 1 степени Орденосец 2 степени Орденосец 3 степени Почетный орденосец Почетный репортер С Новым 2016 Годом! С Новым 2017 Годом! С Новым 2018 Годом! Супер Мега Контер Квейк ТОП-10

Пол: Мужской

Стаж: 3 года 3 месяца

Наличие запрета:

Сообщений: 7233

Откуда: Казахстан, Караганда

Отдача: не определено

Загрузка: не определено

Нажми

Создавать темы 08-Ноя-2018 17:57

[Цитировать]

Информация о фильме- Название: Окончательный счёт
Оригинальное название: Final Score
Год выхода: 2018
Жанр: Боевик
Режиссер: Скотт Манн
В ролях: Дэйв Батиста, Пирс Броснан, Рэй Стивенсон, Мартин Форд, Ральф Браун, Виктория Брум, Люси Гаскелл, Крэйг Конуэй, Стелла Париж, Аарон МакКаскер- -О фильме: Во время террористической атаки племянница Майка затерялась где-то на футбольном стадионе, где они смотрели текущий матч. Ему придётся вспомнить все свои старые навыки, чтобы спасти девочку и предотвратить катастрофу.-Страна: Великобритания
Студия: Signature Films,Drybake Final Score,Highland Film Group
Продолжительность: 01:44:44
Перевод: Профессиональный многоголосый | HDRezka Studio-Качество: BDRemux 1080p
Видео: MPEG-4 AVC, 1920x1080, 22.2 Mbit/s, 23.976 fps
Звук:
Аудио #01: 48 kHz, AC3, 2.0, 192 Kbps | HDRezka Studio | RUS |
Аудио #02: 48 kHz, DTS-HD MA, 5.1, 3945 Kbps | Оригинал | ENG |
Субтитры: Английские-

Скриншоты

--
-

eac3to Log

-eac3to v3.34
command line: eac3to G: 1) -demux
------------------------------------------------------------------------------
M2TS, 1 video track, 2 audio tracks, 2 subtitle tracks, 1:44:44, 24p /1.001
1: Chapters, 16 chapters
2: h264/AVC, 1080p24 /1.001 (16:9)
3: DTS Master Audio, English, 5.1 channels, 24 bits, 48kHz
(core: DTS, 5.1 channels, 1509kbps, 48kHz)
4: AC3, English, 2.0 channels, 192kbps, 48kHz, -9ms
5: Subtitle (PGS), English
6: Subtitle (PGS), Spanish
Creating file "02798 - Chapters.txt"...
[a04] Extracting audio track number 4...
[v02] Extracting video track number 2...
[s05] Extracting subtitle track number 5...
[s06] Extracting subtitle track number 6...
[a03] Extracting audio track number 3...
[a04] A remaining delay of -9ms could not be fixed.
[v02] Creating file "02798 - 2 - h264, 1080p24.h264"...
[a03] Creating file "02798 - 3 - DTS Master Audio, English, 5.1 channels, 24 bits, 48kHz.dtsma"...
[a04] Creating file "02798 - 4 - AC3, English, 2.0 channels, 192kbps, 48kHz.ac3"...
[s05] Creating file "02798 - 5 - Subtitle (PGS), English.sup"...
[s06] Creating file "02798 - 6 - Subtitle (PGS), Spanish.sup"...
Video track 2 contains 150673 frames.
Subtitle track 5 contains 1756 captions.
Subtitle track 6 contains 1283 captions.
eac3to processing took 1 minute, 47 seconds.
Done.-
-

MI

-General
Unique ID : 235499753303374443983389623247564512052 (0xB12B9A491FA42CDCA06BEAFB912D1B34)
Complete name : D:Video111Final.Score.2018.BDREMUX.1080p.selezen.mkv
Format : Matroska
Format version : Version 4
File size : 19.2 GiB
Duration : 1 h 44 min
Overall bit rate mode : Variable
Overall bit rate : 26.3 Mb/s
Movie name : Final Score 2018 from селезень
Encoded date : UTC 2018-11-06 23:58:14
Writing application : mkvmerge v28.0.0 ('Voice In My Head') 64-bit
Writing library : libebml v1.3.6 + libmatroska v1.4.9
Video
ID : 1
Format : AVC
Format/Info : Advanced Video Codec
Format profile : [email protected]
Format settings : CABAC / 4 Ref Frames
Format settings, CABAC : Yes
Format settings, ReFrames : 4 frames
Codec ID : V_MPEG4/ISO/AVC
Duration : 1 h 44 min
Bit rate mode : Variable
Bit rate : 22.2 Mb/s
Maximum bit rate : 37.0 Mb/s
Width : 1 920 pixels
Height : 1 080 pixels
Display aspect ratio : 16:9
Frame rate mode : Constant
Frame rate : 23.976 (24000/1001) FPS
Color space : YUV
Chroma subsampling : 4:2:0
Bit depth : 8 bits
Scan type : Progressive
Bits/(Pixel*Frame) : 0.446
Stream size : 16.2 GiB (84%)
Language : English
Default : Yes
Forced : No
Audio #1
ID : 2
Format : AC-3
Format/Info : Audio Coding 3
Commercial name : Dolby Digital
Codec ID : A_AC3
Duration : 1 h 43 min
Bit rate mode : Constant
Bit rate : 192 kb/s
Channel(s) : 2 channels
Channel layout : L R
Sampling rate : 48.0 kHz
Frame rate : 31.250 FPS (1536 SPF)
Bit depth : 16 bits
Compression mode : Lossy
Stream size : 142 MiB (1%)
Title : MVO [HDRezka Studio]
Language : Russian
Service kind : Complete Main
Default : Yes
Forced : Yes
Audio #2
ID : 3
Format : DTS XLL
Format/Info : Digital Theater Systems
Commercial name : DTS-HD Master Audio
Codec ID : A_DTS
Duration : 1 h 44 min
Bit rate mode : Variable
Bit rate : 3 945 kb/s
Channel(s) : 6 channels
Channel layout : C L R Ls Rs LFE
Sampling rate : 48.0 kHz
Frame rate : 93.750 FPS (512 SPF)
Bit depth : 24 bits
Compression mode : Lossless
Stream size : 2.89 GiB (15%)
Title : Original
Language : English
Default : No
Forced : No
Text
ID : 4
Format : UTF-8
Codec ID : S_TEXT/UTF8
Codec ID/Info : UTF-8 Plain Text
Duration : 1 h 40 min
Bit rate : 66 b/s
Count of elements : 1781
Stream size : 48.6 KiB (0%)
Title : SDH
Language : English
Default : No
Forced : No
Menu
00:00:00.000 : :00:00:00.000
00:04:55.212 : :00:04:55.212
00:12:20.490 : :00:12:20.490
00:19:22.328 : :00:19:22.328
00:26:07.316 : :00:26:07.316
00:32:03.547 : :00:32:03.547
00:37:42.260 : :00:37:42.260
00:44:52.148 : :00:44:52.148
00:50:28.651 : :00:50:28.651
00:55:18.232 : :00:55:18.232
01:04:28.239 : :01:04:28.239
01:09:22.325 : :01:09:22.325
01:15:25.229 : :01:15:25.229
01:20:17.813 : :01:20:17.813
01:27:18.775 : :01:27:18.775
01:34:14.107 : :01:34:14.107-
-Релиз от: -
[free-tor.com].t17624.torrent 
Торрент: Зарегистрирован [ 2018-11-08 17:57 ] · 8B4933AC23BC64A16188B183F5A698784E82C80D

Скачать .torrent

Скачать .torrent

97 KB

Статус: проверено
.torrent скачан: 4 раз
Размер: 19,24 GB
Правила
Похожие темы
[Профиль] [ЛС]
Показать сообщения:    
Ответить на тему

Текущее время: 17-Ноя 00:00

Часовой пояс: UTC + 4



Вы не можете начинать темы
Вы не можете отвечать на сообщения
Вы не можете редактировать свои сообщения
Вы не можете удалять свои сообщения
Вы не можете голосовать в опросах
Вы не можете прикреплять файлы к сообщениям
Вы можете скачивать файлы
Анализ веб сайтов Яндекс.Метрика Рейтинг@Mail.ru