Флэш / The Flash (Джесси Варн, Ральф Хемекер, Зак Стенц, Кевин Смит) [05x01-08 из 22] [2018, фантастика, боевик, драма, приключения, WEB-DL 1080p | TVShows]

Ответить на тему
Статистика раздачи [Обновить пиров]
Размер:  23,88 GB   |    Зарегистрирован:  7 дней   |    .torrent скачан:  2 раза

Полного источника не было: Никогда

Личеров:  11  [  0 KB/s  ]   Подробная статистика пиров
 
   
 
 
 
Автор Сообщение

Skorp10n ®

Оффлайн

 Активный раздающий 1 Активный раздающий 2
 Активный релизер 1000 Активный релизер 1500 Активный релизер 2000 Активный релизер 250 Активный релизер 3000 Активный релизер 500 Активный релизер 5000 Активный релизер Фильмов (1000) Активный релизер Фильмов (300) Активный релизер Фильмов (600) Активный Форумчанин 1 Активный Форумчанин 2 Активный Форумчанин 3 Активный Форумчанин 4 Друг трекера Карма 1000 Карма 1500 Карма 500 Меценат Ни дня без новостей Орденосец 1 степени Орденосец 2 степени Орденосец 3 степени Почетный орденосец Почетный репортер С Новым 2016 Годом! С Новым 2017 Годом! С Новым 2018 Годом! Супер Мега Контер Квейк ТОП-10

Пол: Мужской

Стаж: 3 года 4 месяца

Наличие запрета:

Сообщений: 7773

Откуда: Казахстан, Караганда

Отдача: не определено

Загрузка: не определено

Нажми

Создавать темы 20-Ноя-2018 22:27

[Цитировать]

Флэш / The Flash- Страна: США
Производство: Berlanti Productions, DC Entertainment, Warner Bros. Television
Год выпуска: 2018
Жанр: фантастика, боевик, драма, приключения
Продолжительность: х ~00:43:00-Режиссеры: Джесси Варн, Ральф Хемекер, Зак Стенц, Кевин Смит
В ролях: Грант Гастин, Патрик Сабонгуй, Кэндис Паттон, Даниэль Панабэйкер, Карлос Валдес, Томас Кэвэна, Джесси Л. Мартин, Кейнан Лонсдейл, Рик Коснетт-Описание: Когда Барри было одиннадцать лет, он на собственном опыте узнал, что люди с необычными способностями действительно существуют: его мать была убита одним из таких людей. Повзрослев и став судмедэкспертом, Барри не отбросил мыслей о сверхлюдях и продолжал искать доказательства их существования, что не лучшим образом сказывалось на его репутации и общении с коллегами. Впрочем, однажды его усилия были вознаграждены…- -Перевод: Любительский (многоголосый, закадровый) | TVShows
Субтитры: английские-Качество: WEB-DL 1080p
Формат: МКV
Видео кодек: AVC
Аудио кодек: АС3 | E-AC3
Видео: 1920x1080 (16:9), 23.976 fps, MPEG-4 AVC ~10.5 Mbps avg
Аудио №1: 48.0 kHz, AC3 Dolby Digital, 3/2 (L,C,R,l,r) + LFE ch, ~384 kbps | RUS / MVO
Аудио №2: 48.0 kHz, Enhanced Audio Coding 3, 3/2 (L,C,R,l,r) + LFE ch, ~640 kbps | ENG
Формат субтитров: UTF-8 Plain Text-Дата премьеры (мир): 9 октября 2018- -

Media Info

-General
Format : Matroska
Format version : Version 4 / Version 2
File size : 3.40 GiB
Duration : 42 min 19 s
Overall bit rate : 11.5 Mb/s
Encoded date : UTC 2018-10-29 20:38:32
Writing application : mkvmerge v28.2.0 ('The Awakening') 32-bit
Writing library : libebml v1.3.6 + libmatroska v1.4.9
Video
ID : 1
Format : AVC
Format/Info : Advanced Video Codec
Format profile : [email protected]
Format settings : CABAC / 4 Ref Frames
Format settings, CABAC : Yes
Format settings, ReFrames : 4 frames
Codec ID : V_MPEG4/ISO/AVC
Duration : 42 min 19 s
Bit rate : 10.5 Mb/s
Width : 1 920 pixels
Height : 1 080 pixels
Display aspect ratio : 16:9
Frame rate mode : Constant
Frame rate : 23.976 (24000/1001) FPS
Color space : YUV
Chroma subsampling : 4:2:0
Bit depth : 8 bits
Scan type : Progressive
Bits/(Pixel*Frame) : 0.211
Stream size : 3.10 GiB (91%)
Default : Yes
Forced : No
Color range : Limited
Color primaries : BT.709
Transfer characteristics : BT.709
Matrix coefficients : BT.709
Audio #1
ID : 2
Format : AC-3
Format/Info : Audio Coding 3
Codec ID : A_AC3
Duration : 42 min 19 s
Bit rate mode : Constant
Bit rate : 384 kb/s
Channel(s) : 6 channels
Channel positions : Front: L C R, Side: L R, LFE
Sampling rate : 48.0 kHz
Frame rate : 31.250 FPS (1536 SPF)
Bit depth : 16 bits
Compression mode : Lossy
Stream size : 116 MiB (3%)
Title : TVShows
Language : Russian
Service kind : Complete Main
Default : Yes
Forced : Yes
Audio #2
ID : 3
Format : E-AC-3
Format/Info : Enhanced Audio Coding 3
Codec ID : A_EAC3
Duration : 42 min 19 s
Bit rate mode : Constant
Bit rate : 640 kb/s
Channel(s) : 6 channels
Channel positions : Front: L C R, Side: L R, LFE
Sampling rate : 48.0 kHz
Frame rate : 187.500 FPS (256 SPF)
Compression mode : Lossy
Stream size : 194 MiB (6%)
Title : Original
Language : English
Service kind : Complete Main
Default : No
Forced : No
Text
ID : 4
Format : UTF-8
Codec ID : S_TEXT/UTF8
Codec ID/Info : UTF-8 Plain Text
Duration : 42 min 12 s
Bit rate : 82 b/s
Count of elements : 861
Stream size : 25.5 KiB (0%)
Title : English
Language : English
Default : No
Forced : No-
-

Скриншоты

--
-
[free-tor.com].t17847.torrent 
Торрент: Зарегистрирован [ 2018-12-11 17:16 ] · F63F9505249FC276A9899A08F856838CFC676FD3

Скачать .torrent

Скачать .torrent

121 KB

Статус: проверено
.torrent скачан: 2 раз
Размер: 23,88 GB
Правила
4udaki(20-Ноя-18)
Похожие темы
[Профиль] [ЛС]
Показать сообщения:    
Ответить на тему

Текущее время: 19-Дек 04:10

Часовой пояс: UTC + 4



Вы не можете начинать темы
Вы не можете отвечать на сообщения
Вы не можете редактировать свои сообщения
Вы не можете удалять свои сообщения
Вы не можете голосовать в опросах
Вы не можете прикреплять файлы к сообщениям
Вы можете скачивать файлы
Анализ веб сайтов Яндекс.Метрика Рейтинг@Mail.ru