Чёрный клановец / BlacKkKlansman (Спайк Ли) [2018, драма, комедия, криминал, биография, BDRip-AVC от OlLanDGroup | Лицензия]

Ответить на тему
Статистика раздачи [Обновить пиров]
Размер:  2,11 GB   |    Зарегистрирован:  3 месяца 4 дня   |    .torrent скачан:  5 раз
Сидов:  49  [  0 KB/s  ]   Личеров:  8  [  0 KB/s  ]   Подробная статистика пиров
 
   
 
 
Автор Сообщение

Skorp10n ®

Онлайн

 Активный раздающий 1 Активный раздающий 2
 Активный релизер 1000 Активный релизер 1500 Активный релизер 2000 Активный релизер 250 Активный релизер 3000 Активный релизер 500 Активный релизер 5000 Активный релизер Фильмов (1000) Активный релизер Фильмов (300) Активный релизер Фильмов (600) Активный Форумчанин 1 Активный Форумчанин 2 Активный Форумчанин 3 Активный Форумчанин 4 Друг трекера Карма 1000 Карма 1500 Карма 3000 Карма 500 Меценат Ни дня без новостей Орденосец 1 степени Орденосец 2 степени Орденосец 3 степени Почетный орденосец Почетный репортер С Новым 2016 Годом! С Новым 2017 Годом! С Новым 2018 Годом! С Новым 2019 Годом! Супер Мега Контер Квейк ТОП-10

Пол: Мужской

Стаж: 3 года 8 месяцев

Наличие запрета:

Сообщений: 10023

Откуда: Free-Tor.com

Отдача: не определено

Загрузка: не определено

Нажми

Создавать темы 29-Ноя-2018 11:58

[Цитировать]

Чёрный клановец / BlacKkKlansman
«В сердце ненависти»
- Год выпуска: 2018
Страна: США
Производство: 40 Acres & A Mule Filmworks, Blumhouse Productions, Legendary Entertainment
Жанр: Драма, комедия, криминал, биография-Режиссёр: Спайк Ли
В ролях: Алек Болдуин, Джон Дэвид Вашингтон, Исайя Уитлок мл., Роберт Джон Бёрк, Брайан Тарантина, Артур Дж. Наскарелла, Кен Гарито, Фред Уэллер, Адам Драйвер, Майкл Бушеми, Эшли Эткинсон-Перевод: Дублированный | [Лицензия]
Субтитры: Русские (форс., полные), Английские (полные, SDH)
Реклама: Отсутствует-Описание: Сценарий фильма основан на автобиографичной книге отставного детектива Рона Сталлворта. Действие разворачивается в начале 1970-х, а Рон Сталлворт – первый афроамериканский детектив, служащий в полицейском Департаменте Колорадо-Спрингс. Однако не все рады темнокожему детективу и решив прославиться, мужчина отваживается на опасную миссию: проникнуть и разоблачить ку-клукс-клан. Вскоре к Рону присоединяется более опытный коллега еврей Флип Циммерман, который помогает молодому детективу уничтожить экстремистскую группу.- -Качество: BDRip-AVC | BDRemux | BlacKkKlansman.2018.1080p.BluRay.REMUX.AVC.DTS-HD.MA.TrueHD.7.1.Atmos-FGT
Продолжительность: 02:14:49-Формат: MKV
Видео кодек: MPEG-4 AVC
Аудио кодек: AC3
Видео: 1024x428 (2.40:1), 23,976 fps, x264 ~1 785 kbps avg, 0.170 bit/pixel
Аудио #1: 48 kHz, AC3 Dolby Digital, 3/2 (L,C,R,l,r) + LFE ch, ~448.00 kbps avg | RUS (Лицензия)-Дата премьеры (мир): 14 мая 2018
Дата премьеры (РФ): 4 октября 2018, «UPI»
Цифровой релиз: 29 октября 2018, «Universal»
-Релиз от: Rip by: -

MediaInfo

-Общее
Уникальный идентификатор : 84834991506285285007647523413604557909 (0x3FD2A0031AE3F6459C5F4DE02481E455)
Полное имя : F:OlLanDGroupBlacKkKlansman.2018.BDRip(AVC).OlLanDGroup.mkv
Формат : Matroska
Версия формата : Version 4 / Version 2
Размер файла : 2,11 Гбайт
Продолжительность : 2 ч. 14 м.
Общий поток : 2235 Кбит/сек
Название фильма : BlacKkKlansman.2018 #TorpedoUK#
Дата кодирования : UTC 2019-01-21 11:46:41
Программа кодирования : mkvmerge v29.0.0 ('Like It Or Not') 64-bit
Библиотека кодирования : libebml v1.3.6 + libmatroska v1.4.9
Видео
Идентификатор : 1
Формат : AVC
Формат/Информация : Advanced Video Codec
Профиль формата : [email protected]
Параметр CABAC формата : Да
Параметр ReFrames формата : 10 кадров
Идентификатор кодека : V_MPEG4/ISO/AVC
Продолжительность : 2 ч. 14 м.
Битрейт : 1785 Кбит/сек
Ширина : 1024 пикселя
Высота : 428 пикселей
Соотношение сторон : 2,40:1
Режим частоты кадров : Постоянный
Частота кадров : 23,976 (24000/1001) кадра/сек
Цветовое пространство : YUV
Субдискретизация насыщенности : 4:2:0
Битовая глубина : 8 бит
Тип развёртки : Прогрессивная
Бит/(Пиксели*Кадры) : 0.170
Размер потока : 1,68 Гбайт (80%)
Библиотека кодирования : x264 core 146 r2538 121396c
Настройки программы : cabac=1 / ref=10 / deblock=1:-3:-3 / analyse=0x3:0x113 / me=umh / subme=11 / psy=1 / psy_rd=0.99:0.04 / mixed_ref=1 / me_range=48 / chroma_me=1 / trellis=2 / 8x8dct=1 / cqm=0 / deadzone=21,11 / fast_pskip=1 / chroma_qp_offset=-3 / threads=6 / lookahead_threads=1 / sliced_threads=0 / nr=0 / decimate=1 / interlaced=0 / bluray_compat=0 / constrained_intra=0 / bframes=11 / b_pyramid=2 / b_adapt=2 / b_bias=0 / direct=3 / weightb=1 / open_gop=0 / weightp=2 / keyint=240 / keyint_min=23 / scenecut=40 / intra_refresh=0 / rc_lookahead=40 / rc=2pass / mbtree=0 / bitrate=1785 / ratetol=1.0 / qcomp=0.60 / qpmin=0 / qpmax=69 / qpstep=4 / cplxblur=20.0 / qblur=0.5 / vbv_maxrate=50000 / vbv_bufsize=62500 / nal_hrd=none / filler=0 / ip_ratio=1.40 / pb_ratio=1.30 / aq=1:1.00
Язык : English
Default : Да
Forced : Нет
Аудио
Идентификатор : 2
Формат : AC-3
Формат/Информация : Audio Coding 3
Расширение режима : CM (complete main)
Параметр Endianness формата : Big
Идентификатор кодека : A_AC3
Продолжительность : 2 ч. 14 м.
Вид битрейта : Постоянный
Битрейт : 448 Кбит/сек
Каналы : 6 каналов
Расположение каналов : Front: L C R, Side: L R, LFE
Частота : 48,0 КГц
Частота кадров : 31,250 кадров/сек (1536 spf)
Битовая глубина : 16 бит
Метод сжатия : С потерями
Размер потока : 432 Мбайт (20%)
Заголовок : DUB [License]
Язык : Russian
Default : Да
Forced : Нет
Текст #1
Идентификатор : 3
Формат : UTF-8
Идентификатор кодека : S_TEXT/UTF8
Идентификатор кодека/Информация : UTF-8 Plain Text
Продолжительность : 2 ч. 12 м.
Битрейт : 1 бит/сек
Count of elements : 18
Размер потока : 1,02 Кбайт (0%)
Заголовок : Forced
Язык : Russian
Default : Да
Forced : Нет
Текст #2
Идентификатор : 4
Формат : UTF-8
Идентификатор кодека : S_TEXT/UTF8
Идентификатор кодека/Информация : UTF-8 Plain Text
Продолжительность : 2 ч. 13 м.
Битрейт : 92 бит/сек
Count of elements : 2153
Размер потока : 90,3 Кбайт (0%)
Заголовок : Full
Язык : Russian
Default : Нет
Forced : Нет
Текст #3
Идентификатор : 5
Формат : UTF-8
Идентификатор кодека : S_TEXT/UTF8
Идентификатор кодека/Информация : UTF-8 Plain Text
Продолжительность : 2 ч. 8 м.
Битрейт : 84 бит/сек
Count of elements : 2689
Размер потока : 79,8 Кбайт (0%)
Заголовок : Full
Язык : English
Default : Нет
Forced : Нет
Текст #4
Идентификатор : 6
Формат : UTF-8
Идентификатор кодека : S_TEXT/UTF8
Идентификатор кодека/Информация : UTF-8 Plain Text
Продолжительность : 2 ч. 13 м.
Битрейт : 93 бит/сек
Count of elements : 3011
Размер потока : 91,4 Кбайт (0%)
Заголовок : SDH
Язык : English
Default : Нет
Forced : Нет
Меню
00:00:00.000 : en:Chapter 01
00:04:10.250 : en:Chapter 02
00:13:54.875 : en:Chapter 03
00:23:16.603 : en:Chapter 04
00:27:56.508 : en:Chapter 05
00:36:10.668 : en:Chapter 06
00:43:21.557 : en:Chapter 07
00:48:30.616 : en:Chapter 08
00:54:58.628 : en:Chapter 09
00:59:48.543 : en:Chapter 10
01:07:04.770 : en:Chapter 11
01:16:37.801 : en:Chapter 12
01:22:20.393 : en:Chapter 13
01:29:38.122 : en:Chapter 14
01:39:10.653 : en:Chapter 15
01:48:27.042 : en:Chapter 16
01:56:05.583 : en:Chapter 17
02:00:43.945 : en:Chapter 18
02:03:57.430 : en:Chapter 19
02:09:03.277 : en:Chapter 20-
-

Скриншоты

--
-
[free-tor.com].t17962.torrent 
Торрент: Зарегистрирован [ 2019-01-21 16:25 ] · 7D0971D08A3DD41B084275EAAACCE899F99623AB

Скачать .torrent

Скачать .torrent

11 KB

Статус: проверено
.torrent скачан: 5 раз
Размер: 2,11 GB
Правила
Похожие темы
[Профиль] [ЛС]
Показать сообщения:    
Ответить на тему

Текущее время: 26-Апр 00:13

Часовой пояс: UTC + 4



Вы не можете начинать темы
Вы не можете отвечать на сообщения
Вы не можете редактировать свои сообщения
Вы не можете удалять свои сообщения
Вы не можете голосовать в опросах
Вы не можете прикреплять файлы к сообщениям
Вы можете скачивать файлы
Анализ веб сайтов Яндекс.Метрика Рейтинг@Mail.ru