Звёздный путь: Дискавери / Star Trek: Discovery (Акива Голдсман, Адам Кэйн, Ли Роуз) [02х01-04 из 14] [2019, фантастика, WEB-DL 1080р | SDI Media]

Ответить на тему
Статистика раздачи [Обновить пиров]
Размер:  7,95 GB   |    Зарегистрирован:  4 дня   |    .torrent скачан:  4 раза
Сидов:  85  [  0 KB/s  ]   Личеров:  136  [  0 KB/s  ]   Подробная статистика пиров
 
   
 
 
Автор Сообщение

Skorp10n ®

Оффлайн

 Активный раздающий 1 Активный раздающий 2
 Активный релизер 1000 Активный релизер 1500 Активный релизер 2000 Активный релизер 250 Активный релизер 3000 Активный релизер 500 Активный релизер 5000 Активный релизер Фильмов (1000) Активный релизер Фильмов (300) Активный релизер Фильмов (600) Активный Форумчанин 1 Активный Форумчанин 2 Активный Форумчанин 3 Активный Форумчанин 4 Друг трекера Карма 1000 Карма 1500 Карма 500 Меценат Ни дня без новостей Орденосец 1 степени Орденосец 2 степени Орденосец 3 степени Почетный орденосец Почетный репортер С Новым 2016 Годом! С Новым 2017 Годом! С Новым 2018 Годом! С Новым 2019 Годом! Супер Мега Контер Квейк ТОП-10

Пол: Мужской

Стаж: 3 года 6 месяцев

Наличие запрета:

Сообщений: 8838

Откуда: Free-Tor.com

Отдача: не определено

Загрузка: не определено

Нажми

Создавать темы 18-Янв-2019 21:08

[Цитировать]

Название: Звёздный путь: Дискавери
Оригинальное название: Star Trek: Discovery
Год выхода: 2019
Жанр: Фантастика
Режиссеры: Акива Голдсман, Адам Кэйн, Ли Роуз-В ролях: Джейсон Айзекс, Даг Джонс, Шазад Латиф, Сонекуа Мартин-Грин, Молик Панчоли, Энтони Рэпп, Мишель Йео, Кеннет Митчелл, Дэймон Рунян и др.-О сериале: За 10 лет до начала истории, описанной в оригинальном сериале «Звёздный путь», экипаж корабля USS Discovery NCC-1031 отправляется в путешествие, чтобы изучать глубокий космос и открыть новые миры и цивилизации.-Страна: США
Студии: CBS Television Studios, Living Dead Guy Productions, Paramount Television, Roddenberry Entertainment, Secret Hideout
Продолжительность: ~00:45:00
Перевод: Профессиональный (многоголосый закадровый) SDI Media
Субтитры: Русские, Английские- -Файл-Формат: MKV
Качество: WEB-DL 1080р-Видео: MPEG-4 AVC, ~ 5000 Кбит/с, 1920x1080
Аудио RUS: 48 kHz, AC3, 3/2 (L,C,R,l,r) + LFE ch, ~640.00 kbps avg
Аудио ENG: 48 kHz, AC3, 3/2 (L,C,R,l,r) + LFE ch, ~640.00 kbps avg-
-

MediaInfo

-Общее
Уникальный идентификатор : 184740155491820740408422763779029421205 (0x8AFBA8E4ABD1DC14CC5B5AEA82D34C95)
Полное имя : Star.Trek.Discovery.S02E01.Brother.1080p.NF.WEB-DL.DDP5.1.x264-CasStudio.mkv
Формат : Matroska
Версия формата : Version 4
Размер файла : 2,60 Гбайт
Продолжительность : 1 ч. 0 м.
Режим общего битрейта : Переменный
Общий поток : 6110 Кбит/сек
Дата кодирования : UTC 2019-01-18 08:57:06
Программа кодирования : mkvmerge v30.1.0 ('Forever And More') 64-bit
Библиотека кодирования : libebml v1.3.6 + libmatroska v1.4.9
Видео
Идентификатор : 1
Формат : AVC
Формат/Информация : Advanced Video Codec
Профиль формата : [email protected]
Настройки формата : CABAC / 3 Ref Frames
Параметр CABAC формата : Да
Параметр RefFrames формата : 3 кадра
Идентификатор кодека : V_MPEG4/ISO/AVC
Продолжительность : 1 ч. 0 м.
Вид битрейта : Переменный
Битрейт : 4870 Кбит/сек
Максимальный битрейт : 7305 Кбит/сек
Ширина : 1920 пикселей
Высота : 1080 пикселей
Соотношение сторон : 16:9
Режим частоты кадров : Постоянный
Частота кадров : 23,976 (24000/1001) кадра/сек
Цветовое пространство : YUV
Субдискретизация насыщенности : 4:2:0
Битовая глубина : 8 бит
Тип развёртки : Прогрессивная
Бит/(Пиксели*Кадры) : 0.098
Размер потока : 2,05 Гбайт (79%)
Библиотека кодирования : x264 core 148 r2715 7e75228
Настройки программы : cabac=1 / ref=3 / deblock=1:0:0 / analyse=0x1:0x111 / me=umh / subme=10 / psy=1 / psy_rd=1.00:0.00 / mixed_ref=1 / me_range=24 / chroma_me=1 / trellis=2 / 8x8dct=0 / cqm=0 / deadzone=21,11 / fast_pskip=1 / chroma_qp_offset=-2 / threads=8 / lookahead_threads=1 / sliced_threads=0 / nr=0 / decimate=1 / interlaced=0 / bluray_compat=0 / stitchable=1 / constrained_intra=0 / bframes=2 / b_pyramid=0 / b_adapt=2 / b_bias=0 / direct=3 / weightb=1 / open_gop=0 / weightp=2 / keyint=48 / keyint_min=25 / scenecut=0 / intra_refresh=0 / rc_lookahead=48 / rc=2pass / mbtree=1 / bitrate=4870 / ratetol=1.0 / qcomp=0.50 / qpmin=6 / qpmax=51 / qpstep=4 / cplxblur=20.0 / qblur=0.5 / vbv_maxrate=7305 / vbv_bufsize=9740 / nal_hrd=vbr / filler=0 / ip_ratio=1.40 / aq=1:1.00
Язык : English
Default : Да
Forced : Нет
Аудио #1
Идентификатор : 2
Формат : E-AC-3
Формат/Информация : Enhanced AC-3
Коммерческое название : Dolby Digital Plus
Идентификатор кодека : A_EAC3
Продолжительность : 1 ч. 0 м.
Вид битрейта : Постоянный
Битрейт : 640 Кбит/сек
Каналы : 6 каналов
Channel layout : L R C LFE Ls Rs
Частота : 48,0 КГц
Частота кадров : 31,250 кадров/сек (1536 SPF)
Метод сжатия : С потерями
Размер потока : 278 Мбайт (10%)
Заголовок : SDI Media
Язык : Russian
Default : Да
Forced : Нет
Аудио #2
Идентификатор : 3
Формат : E-AC-3
Формат/Информация : Enhanced AC-3
Коммерческое название : Dolby Digital Plus
Идентификатор кодека : A_EAC3
Продолжительность : 1 ч. 0 м.
Вид битрейта : Постоянный
Битрейт : 640 Кбит/сек
Каналы : 6 каналов
Channel layout : L R C LFE Ls Rs
Частота : 48,0 КГц
Частота кадров : 31,250 кадров/сек (1536 SPF)
Метод сжатия : С потерями
Размер потока : 278 Мбайт (10%)
Язык : English
Default : Нет
Forced : Нет
Текст #1
Идентификатор : 4
Формат : UTF-8
Идентификатор кодека : S_TEXT/UTF8
Идентификатор кодека/Информация : UTF-8 Plain Text
Продолжительность : 59 м. 50 с.
Битрейт : 1 бит/сек
ElementCount : 14
Размер потока : 560 байт (0%)
Заголовок : Forced
Язык : Russian
Default : Да
Forced : Да
Текст #2
Идентификатор : 5
Формат : UTF-8
Идентификатор кодека : S_TEXT/UTF8
Идентификатор кодека/Информация : UTF-8 Plain Text
Продолжительность : 1 ч. 0 м.
Битрейт : 112 бит/сек
ElementCount : 792
Размер потока : 49,4 Кбайт (0%)
Язык : Russian
Default : Нет
Forced : Нет
Текст #3
Идентификатор : 6
Формат : UTF-8
Идентификатор кодека : S_TEXT/UTF8
Идентификатор кодека/Информация : UTF-8 Plain Text
Продолжительность : 1 с. 126 мс.
Битрейт : 35 бит/сек
ElementCount : 1
Размер потока : 5,00 байт (0%)
Заголовок : Forced
Язык : English
Default : Нет
Forced : Нет
Текст #4
Идентификатор : 7
Формат : UTF-8
Идентификатор кодека : S_TEXT/UTF8
Идентификатор кодека/Информация : UTF-8 Plain Text
Продолжительность : 58 м. 58 с.
Битрейт : 73 бит/сек
ElementCount : 834
Размер потока : 31,8 Кбайт (0%)
Заголовок : SDH
Язык : English
Default : Нет
Forced : Нет-
-

Внимание! Раздача ведётся путём добавления новых серий

-Внимание! Раздача ведётся путём добавления новых серий; при каждом добавлении создаётся новый торрент. Чтобы начать докачку новой серии, пользователям необходимо сделать следующее:
(1) остановить скачивание,
(2) удалить старый торрент у себя из клиента (старые серии удалять не надо),
(3) скачать новый торрент и запустить его у себя в клиенте вместо старого, при этом указать клиенту путь в старую папку куда и должно происходить скачивание новых серий.
Ваш клиент при этом должен произвести хеширование (проверку) старой папки (если не производит сам - помогите ему сделать это), и будет докачивать только те серии которых у вас ещё нет. Старые серии при этом не удаляются, а продолжают раздаваться!
Eсли вы уже удалили старые серии, то предотвратить повторную закачку старых серий можно, отжав галочку в соответсвующих местах при запуске нового торрента. По возможности, желательно не удалять старые серии как можно дольше чтобы релизёр не столько продолжал раздавать старые серии, а смог сконцентрироваться на новых.-
-

Скриншоты

--
-
[free-tor.com].t18924.torrent 
Торрент: Зарегистрирован [ 2019-02-11 12:37 ] · ABCA024BF1719C67D3DFCE38086757126EBFA8E3

Скачать .torrent

Скачать .torrent

21 KB

Статус: проверено
.torrent скачан: 4 раз
Размер: 7,95 GB
Правила
Похожие темы
[Профиль] [ЛС]
Показать сообщения:    
Ответить на тему

Текущее время: 16-Фев 01:52

Часовой пояс: UTC + 4



Вы не можете начинать темы
Вы не можете отвечать на сообщения
Вы не можете редактировать свои сообщения
Вы не можете удалять свои сообщения
Вы не можете голосовать в опросах
Вы не можете прикреплять файлы к сообщениям
Вы можете скачивать файлы
Анализ веб сайтов Яндекс.Метрика Рейтинг@Mail.ru