Стекло / Glass (М. Найт Шьямалан) [2019, фантастика, триллер, драма, детектив, TS 720p | DUB | Звук с TS | Присутствует реклама!]

Тема закрыта
 
Автор Сообщение

Skorp10n ®

Оффлайн

 Активный раздающий 1 Активный раздающий 2
 Активный релизер 1000 Активный релизер 1500 Активный релизер 2000 Активный релизер 250 Активный релизер 3000 Активный релизер 500 Активный релизер 5000 Активный релизер Фильмов (1000) Активный релизер Фильмов (300) Активный релизер Фильмов (600) Активный Форумчанин 1 Активный Форумчанин 2 Активный Форумчанин 3 Активный Форумчанин 4 Друг трекера Карма 1000 Карма 1500 Карма 3000 Карма 500 Меценат Ни дня без новостей Орденосец 1 степени Орденосец 2 степени Орденосец 3 степени Почетный орденосец Почетный репортер С Новым 2016 Годом! С Новым 2017 Годом! С Новым 2018 Годом! С Новым 2019 Годом! Супер Мега Контер Квейк ТОП-10

Пол: Мужской

Стаж: 3 года 8 месяцев

Наличие запрета:

Сообщений: 10023

Откуда: Free-Tor.com

Отдача: не определено

Загрузка: не определено

Нажми

Создавать темы 18-Янв-2019 21:25

[Цитировать]

-Стекло / Glass«Дай волю своим демонам»- Год выхода: 2019
Страна: США
Жанр: фантастика, триллер, драма, детектив
Продолжительность: 02:01:01
Перевод: Профессиональный (полное дублирование)
Субтитры: Отсутствуют-Режиссер: М. Найт Шьямалан
В ролях: Аня Тейлор-Джой, Джеймс МакЭвой, Сара Полсон, Брюс Уиллис, Сэмюэл Л. Джексон, Спенсер Трит Кларк, Люк Кирби, Джейн Парк Смит, Кайли Зион, Нина Уиснер-О фильме: В поисках встречи с обладающим фантастическими способностями Зверем, Дэвид Данн выходит на след Кевина Крамба. Однако в дело вмешивается Элайджа Прайс, который тщательно хранит секреты Данна и Крамба.- -Качество: TS 720p
Формат: MKV
Видео кодек: AVC
Аудио кодек: AC3
Видео: 1280x536, 23.976 fps, 3 654 Кбит/сек
Аудио: AC3, 384 Кбит/с, 2 ch, 48.0 KHz-Примечание: Присутствует реклама!-

MediaInfo

-
General
Unique ID                   : 203444541977849015622901971604849899594 (0x990DFE58C02F4D1B904C6113A9E9384A)
Complete name               : I:\Torrent\STeKlo.2O18.D.TS.72Op_KOSHARA.mkv
Format                      : Matroska
Format version              : Version 2
File size                   : 3.41 GiB
Duration                    : 2 h 1 min
Overall bit rate mode       : Variable
Overall bit rate            : 4 039 kb/s
Encoded date                : UTC 2019-01-18 04:18:52
Writing application         : mkvmerge v8.3.0 ('Over the Horizon') 64bit
Writing library             : libebml v1.3.1 + libmatroska v1.4.2
Video
ID                          : 1
Format                      : AVC
Format/Info                 : Advanced Video Codec
Format profile              : [email protected]
Format settings             : CABAC / 4 Ref Frames
Format settings, CABAC      : Yes
Format settings, ReFrames   : 4 frames
Codec ID                    : V_MPEG4/ISO/AVC
Duration                    : 2 h 1 min
Bit rate mode               : Variable
Bit rate                    : 3 654 kb/s
Maximum bit rate            : 4 000 kb/s
Width                       : 1 280 pixels
Height                      : 536 pixels
Display aspect ratio        : 2.40:1
Frame rate mode             : Constant
Frame rate                  : 23.976 (24000/1001) FPS
Standard                    : Component
Color space                 : YUV
Chroma subsampling          : 4:2:0
Bit depth                   : 8 bits
Scan type                   : Progressive
Bits/(Pixel*Frame)          : 0.222
Stream size                 : 3.09 GiB (90%)
Default                     : Yes
Forced                      : No
Color range                 : Limited
Color primaries             : BT.709
Transfer characteristics    : BT.709
Matrix coefficients         : BT.709
Audio
ID                          : 2
Format                      : AC-3
Format/Info                 : Audio Coding 3
Commercial name             : Dolby Digital
Codec ID                    : A_AC3
Duration                    : 2 h 1 min
Bit rate mode               : Constant
Bit rate                    : 384 kb/s
Channel(s)                  : 2 channels
Channel layout              : L R
Sampling rate               : 48.0 kHz
Frame rate                  : 31.250 FPS (1536 SPF)
Bit depth                   : 16 bits
Compression mode            : Lossy
Stream size                 : 332 MiB (10%)
Service kind                : Complete Main
Default                     : Yes
Forced                      : No
-
-

Скриншоты

--
-


Последний раз редактировалось: Skorp10n (2019-01-18 21:25), всего редактировалось 1 раз
[Профиль] [ЛС]

Skorp10n ®

Оффлайн

 Активный раздающий 1 Активный раздающий 2
 Активный релизер 1000 Активный релизер 1500 Активный релизер 2000 Активный релизер 250 Активный релизер 3000 Активный релизер 500 Активный релизер 5000 Активный релизер Фильмов (1000) Активный релизер Фильмов (300) Активный релизер Фильмов (600) Активный Форумчанин 1 Активный Форумчанин 2 Активный Форумчанин 3 Активный Форумчанин 4 Друг трекера Карма 1000 Карма 1500 Карма 3000 Карма 500 Меценат Ни дня без новостей Орденосец 1 степени Орденосец 2 степени Орденосец 3 степени Почетный орденосец Почетный репортер С Новым 2016 Годом! С Новым 2017 Годом! С Новым 2018 Годом! С Новым 2019 Годом! Супер Мега Контер Квейк ТОП-10

Пол: Мужской

Стаж: 3 года 8 месяцев

Наличие запрета:

Сообщений: 10023

Откуда: Free-Tor.com

Отдача: не определено

Загрузка: не определено

Нажми

Создавать темы 18-Янв-2019 21:25 (спустя 13 секунд)

[Цитировать]

T временная - до выхода лицензии!-
[Профиль] [ЛС]

Создавать темы 18-Апр-2019 16:07 (спустя 2 месяца 30 дней)

Топик был перенесен из форума Новинки 2018/2019 года в форум Для удаленных раздач
Причина переноса: Поглощено в пользу: http://free-tor.com/viewtopic.php?t=20542
Skorp10n
 
Показать сообщения:    
Тема закрыта

Текущее время: 25-Апр 23:45

Часовой пояс: UTC + 4



Вы не можете начинать темы
Вы не можете отвечать на сообщения
Вы не можете редактировать свои сообщения
Вы не можете удалять свои сообщения
Вы не можете голосовать в опросах
Вы не можете прикреплять файлы к сообщениям
Вы не можете скачивать файлы
Анализ веб сайтов Яндекс.Метрика Рейтинг@Mail.ru