(Hard Rock) Deep Purple - Collection 1970 - 1973 (4CD) (24K Gold Limited Edition, USA) - 2013 [FLAC, image +.cue, lossless]

Ответить на тему
 
Автор Сообщение

sergej644 ®

Оффлайн

 1-е место

Пол: Мужской

Стаж: 11 месяцев 2 дня

Наличие запрета:

Сообщений: 21

Отдача: 50 Mb/s

Загрузка: 50 Mb/s

Нажми

Создавать темы 02-Мар-2016 23:48

[Цитировать]

-Deep Purple - Collection 1970 - 1973 (4CD)--
Год издания: 2013
Страна: UK
Жанр: Hard Rock
Продолжительность: 02:35:37-Лейбл издания: Audio Fidelity
Страна-выпуска диска: USA
Номер по каталогу: AFZB 019-Формат: FLAC
Битрейт аудио: Lossless
Тип рипа: image +.cue
Наличие сканов в содержимом раздачи: да
-

1970 - Deep Purple In Rock (24K Gold Limited Edition)


Год: 1970
Год издания: 2009
Страна: UK
Жанр: Hard Rock
Продолжительность: 00:43:50-Лейбл издания: Audio Fidelity
Страна-выпуска диска: USA
Номер по каталогу: AFZ 051-Формат: FLAC
Битрейт аудио: Lossless
Тип рипа: image +.cue
Наличие сканов в содержимом раздачи: да


01. Speed King (05:56)
02. Bloodsucker (04:16)
03. Child In Time (10:23)
04. Flight Of The Rat (07:58)
05. Into The Fire (03:30)
06. Living Wreck (04:35)
07. Hard Lovin' Man (07:14)

лог создания рипа

Exact Audio Copy V1.0 beta 3 from 29. August 2011
Отчёт EAC об извлечении, выполненном 12. февраля 2016, 19:27
Deep Purple / Deep Purple In Rock (Gold AFZ 051)
Дисковод: ASUS    DRW-24B3ST   Adapter: 3  ID: 0
Режим чтения                 : Достоверность
Использование точного потока : Да
Отключение кэша аудио        : Да
Использование указателей C2  : Нет
Коррекция смещения при чтении                     : 6
Способность читать области Lead-in и Lead-out     : Нет
Заполнение пропущенных сэмплов тишиной            : Да
Удаление блоков с тишиной в начале и конце        : Нет
При вычислениях CRC использовались нулевые сэмплы : Да
Интерфейс                                         : Встроенный Win32-интерфейс для Win NT/2000
Выходной формат          : Пользовательский кодировщик
Выбранный битрейт        : 128 kBit/s
Качество                 : Высокий
Добавление ID3-тега      : Нет
Утилита сжатия           : C:\Program Files (x86)\Exact Audio Copy\Flac\flac.exe
Дополнительные параметры : -V -8 -T "Date=%year%" -T "Genre=%genre%" %source%
TOC извлечённого CD
     Трек |   Старт  | Длительность | Начальный сектор | Конечный сектор
    ---------------------------------------------------------------------
       1  |  0:00.00 |    5:55.56   |           0      |      26680
       2  |  5:55.56 |    4:15.56   |       26681      |      45861
       3  | 10:11.37 |   10:22.59   |       45862      |      92570
       4  | 20:34.21 |    7:57.30   |       92571      |     128375
       5  | 28:31.51 |    3:30.00   |      128376      |     144125
       6  | 32:01.51 |    4:34.29   |      144126      |     164704
       7  | 36:36.05 |    7:13.11   |      164705      |     197190
Характеристики диапазона извлечения и сообщения об ошибках
Выбранный диапазон
     Имя файла E:\РАЗДАЧИ\NNM\Deep Purple - The Audio Fidelity Collection\1970 - Deep Purple In Rock (2009) AFZ 051 24K Gold Limited Edition, USA\Deep Purple - Deep Purple In Rock (Gold AFZ 051).wav
     Пиковый уровень 100.0 %
     Скорость извлечения 5.4 X
     Качество диапазона 100.0 %
     CRC теста 05DDFC3A
     CRC копии 05DDFC3A
     Копирование... OK
Ошибок не произошло
AccurateRip: сводка
Трек  1  : извлечено точно (доверие 78)  [B957E79A]  (AR v2)
Трек  2  : извлечено точно (доверие 80)  [C5E33ED9]  (AR v2)
Трек  3  : извлечено точно (доверие 81)  [4AAE66A2]  (AR v2)
Трек  4  : извлечено точно (доверие 80)  [2E053CA1]  (AR v2)
Трек  5  : извлечено точно (доверие 80)  [A63C2C4C]  (AR v2)
Трек  6  : извлечено точно (доверие 80)  [B68BB435]  (AR v2)
Трек  7  : извлечено точно (доверие 80)  [C823E606]  (AR v2)
Все треки извлечены точно
Конец отчёта

содержание индексной карты *cue

REM GENRE "Hard Rock"
REM DATE 1970
REM DISCID 560A4507
REM COMMENT "ExactAudioCopy v1.0b3"
PERFORMER "Deep Purple"
TITLE "Deep Purple In Rock (Gold AFZ 051)"
FILE "Deep Purple - Deep Purple In Rock (Gold AFZ 051).flac" WAVE
  TRACK 01 AUDIO
    TITLE "Speed King"
    PERFORMER "Deep Purple"
    INDEX 01 00:00:00
  TRACK 02 AUDIO
    TITLE "Bloodsucker"
    PERFORMER "Deep Purple"
    INDEX 01 05:55:56
  TRACK 03 AUDIO
    TITLE "Child In Time"
    PERFORMER "Deep Purple"
    INDEX 01 10:11:37
  TRACK 04 AUDIO
    TITLE "Flight Of The Rat"
    PERFORMER "Deep Purple"
    INDEX 00 20:29:56
    INDEX 01 20:34:21
  TRACK 05 AUDIO
    TITLE "Into The Fire"
    PERFORMER "Deep Purple"
    INDEX 01 28:31:51
  TRACK 06 AUDIO
    TITLE "Living Wreck"
    PERFORMER "Deep Purple"
    INDEX 01 32:01:51
  TRACK 07 AUDIO
    TITLE "Hard Lovin' Man"
    PERFORMER "Deep Purple"
    INDEX 01 36:36:05

1971 - Fireball (24K Gold Limited Edition)


Год: 1971
Год издания: 2010
Страна: UK
Жанр: Hard Rock
Продолжительность: 00:39:18-Лейбл издания: Audio Fidelity
Страна-выпуска диска: USA
Номер по каталогу: AFZ 098-Формат: FLAC
Битрейт аудио: Lossless
Тип рипа: image +.cue
Наличие сканов в содержимом раздачи: да


01. Fireball (03:25)
02. No No No (06:54)
03. Strange Kind Of Woman (04:06)
04. Anyone's Daughter (04:46)
05. The Mule (05:21)
06. Fools (08:21)
07. No One Came (06:27)

лог создания рипа

Exact Audio Copy V1.0 beta 3 from 29. August 2011
Отчёт EAC об извлечении, выполненном 7. февраля 2016, 14:45
Deep Purple / Fireball (Gold AFZ 098)
Дисковод: hp      DVD-RAM UJ8B1   Adapter: 0  ID: 0
Режим чтения                 : Достоверность
Использование точного потока : Да
Отключение кэша аудио        : Да
Использование указателей C2  : Нет
Коррекция смещения при чтении                     : 6
Способность читать области Lead-in и Lead-out     : Нет
Заполнение пропущенных сэмплов тишиной            : Да
Удаление блоков с тишиной в начале и конце        : Нет
При вычислениях CRC использовались нулевые сэмплы : Да
Интерфейс                                         : Встроенный Win32-интерфейс для Win NT/2000
Выходной формат          : Пользовательский кодировщик
Выбранный битрейт        : 128 kBit/s
Качество                 : Высокий
Добавление ID3-тега      : Нет
Утилита сжатия           : C:\Program Files (x86)\Exact Audio Copy\Flac\flac.exe
Дополнительные параметры : -V -8 -T "Date=%year%" -T "Genre=%genre%" %source%
TOC извлечённого CD
     Трек |   Старт  | Длительность | Начальный сектор | Конечный сектор
    ---------------------------------------------------------------------
       1  |  0:00.00 |    3:24.43   |           0      |      15342
       2  |  3:24.43 |    6:53.60   |       15343      |      46377
       3  | 10:18.28 |    4:05.67   |       46378      |      64819
       4  | 14:24.20 |    4:45.30   |       64820      |      86224
       5  | 19:09.50 |    5:20.64   |       86225      |     110288
       6  | 24:30.39 |    8:20.70   |      110289      |     147858
       7  | 32:51.34 |    6:26.25   |      147859      |     176833
Характеристики диапазона извлечения и сообщения об ошибках
Выбранный диапазон
     Имя файла E:\РАЗДАЧИ\NNM\Deep Purple - The Audio Fidelity Collection\1971 - Fireball (2010) AFZ 098 24K Gold Limited Edition, USA\Deep Purple - Fireball (Gold AFZ 098).wav
     Пиковый уровень 90.8 %
     Скорость извлечения 2.6 X
     Качество диапазона 100.0 %
     CRC теста 049E07A7
     CRC копии 049E07A7
     Копирование... OK
Ошибок не произошло
AccurateRip: сводка
Трек  1  : извлечено точно (доверие 35)  [7751DADF]  (AR v2)
Трек  2  : извлечено точно (доверие 35)  [97E75863]  (AR v2)
Трек  3  : извлечено точно (доверие 35)  [2BA82329]  (AR v2)
Трек  4  : извлечено точно (доверие 35)  [E151F819]  (AR v2)
Трек  5  : извлечено точно (доверие 35)  [6183046F]  (AR v2)
Трек  6  : извлечено точно (доверие 35)  [DCE26819]  (AR v2)
Трек  7  : извлечено точно (доверие 35)  [5BBCB2DF]  (AR v2)
Все треки извлечены точно
Конец отчёта

содержание индексной карты *cue

REM GENRE "Hard Rock"
REM DATE 1971
REM DISCID 50093507
REM COMMENT "ExactAudioCopy v1.0b3"
PERFORMER "Deep Purple"
TITLE "Fireball (Gold AFZ 098)"
FILE "Deep Purple - Fireball (Gold AFZ 098).flac" WAVE
  TRACK 01 AUDIO
    TITLE "Fireball"
    PERFORMER "Deep Purple"
    INDEX 01 00:00:00
  TRACK 02 AUDIO
    TITLE "No No No"
    PERFORMER "Deep Purple"
    INDEX 01 03:24:43
  TRACK 03 AUDIO
    TITLE "Strange Kind Of Woman"
    PERFORMER "Deep Purple"
    INDEX 01 10:18:28
  TRACK 04 AUDIO
    TITLE "Anyone's Daughter"
    PERFORMER "Deep Purple"
    INDEX 01 14:24:20
  TRACK 05 AUDIO
    TITLE "The Mule"
    PERFORMER "Deep Purple"
    INDEX 01 19:09:50
  TRACK 06 AUDIO
    TITLE "Fools"
    PERFORMER "Deep Purple"
    INDEX 01 24:30:39
  TRACK 07 AUDIO
    TITLE "No One Came"
    PERFORMER "Deep Purple"
    INDEX 01 32:51:34

1972 - Machine Head (24K Gold Limited Edition)


Год: 1972
Год издания: 2010
Страна: UK
Жанр: Hard Rock
Продолжительность: 00:37:50-Лейбл издания: Audio Fidelity
Страна-выпуска диска: USA
Номер по каталогу: AFZ 065-Формат: FLAC
Битрейт аудио: Lossless
Тип рипа: image +.cue
Наличие сканов в содержимом раздачи: да


01. Highway Star (06:08)
02. Maybe I'm A Leo (04:52)
03. Pictures Of Home (05:07)
04. Never Before (04:04)
05. Smoke On The Water (05:44)
06. Lazy (07:24)
07. Space Truckin (04:35)

лог создания рипа

Exact Audio Copy V1.0 beta 3 from 29. August 2011
Отчёт EAC об извлечении, выполненном 7. февраля 2016, 15:35
Deep Purple / Machine Head( Gold AFZ 065)
Дисковод: hp      DVD-RAM UJ8B1   Adapter: 0  ID: 0
Режим чтения                 : Достоверность
Использование точного потока : Да
Отключение кэша аудио        : Да
Использование указателей C2  : Нет
Коррекция смещения при чтении                     : 6
Способность читать области Lead-in и Lead-out     : Нет
Заполнение пропущенных сэмплов тишиной            : Да
Удаление блоков с тишиной в начале и конце        : Нет
При вычислениях CRC использовались нулевые сэмплы : Да
Интерфейс                                         : Встроенный Win32-интерфейс для Win NT/2000
Выходной формат          : Пользовательский кодировщик
Выбранный битрейт        : 128 kBit/s
Качество                 : Высокий
Добавление ID3-тега      : Нет
Утилита сжатия           : C:\Program Files (x86)\Exact Audio Copy\Flac\flac.exe
Дополнительные параметры : -V -8 -T "Date=%year%" -T "Genre=%genre%" %source%
TOC извлечённого CD
     Трек |   Старт  | Длительность | Начальный сектор | Конечный сектор
    ---------------------------------------------------------------------
       1  |  0:00.00 |    6:07.18   |           0      |      27542
       2  |  6:07.18 |    4:51.61   |       27543      |      49428
       3  | 10:59.04 |    5:06.36   |       49429      |      72414
       4  | 16:05.40 |    4:03.52   |       72415      |      90691
       5  | 20:09.17 |    5:43.01   |       90692      |     116417
       6  | 25:52.18 |    7:23.11   |      116418      |     149653
       7  | 33:15.29 |    4:34.44   |      149654      |     170247
Характеристики диапазона извлечения и сообщения об ошибках
Выбранный диапазон
     Имя файла E:\РАЗДАЧИ\NNM\Deep Purple - The Audio Fidelity Collection\1972 - Machine Head (2010) AFZ 065 24K Gold Limited Edition, USA\Deep Purple - Machine Head( Gold AFZ 065).wav
     Пиковый уровень 93.3 %
     Скорость извлечения 4.0 X
     Качество диапазона 100.0 %
     CRC теста 5C1FE451
     CRC копии 5C1FE451
     Копирование... OK
Ошибок не произошло
AccurateRip: сводка
Трек  1  : извлечено точно (доверие 75)  [3AEF282A]  (AR v2)
Трек  2  : извлечено точно (доверие 75)  [E1C4E2E3]  (AR v2)
Трек  3  : извлечено точно (доверие 75)  [19D79475]  (AR v2)
Трек  4  : извлечено точно (доверие 75)  [5AAAC8D0]  (AR v2)
Трек  5  : извлечено точно (доверие 75)  [5D65EC57]  (AR v2)
Трек  6  : извлечено точно (доверие 75)  [792C4B35]  (AR v2)
Трек  7  : извлечено точно (доверие 74)  [157E7487]  (AR v2)
Все треки извлечены точно
Конец отчёта

содержание индексной карты *cue

REM GENRE "Hard Rock"
REM DATE 1972
REM DISCID 6508DD07
REM COMMENT "ExactAudioCopy v1.0b3"
PERFORMER "Deep Purple"
TITLE "Machine Head( Gold AFZ 065)"
FILE "Deep Purple - Machine Head( Gold AFZ 065).flac" WAVE
  TRACK 01 AUDIO
    TITLE "Highway Star"
    PERFORMER "Deep Purple"
    INDEX 01 00:00:00
  TRACK 02 AUDIO
    TITLE "Maybe I'm A Leo"
    PERFORMER "Deep Purple"
    INDEX 01 06:07:18
  TRACK 03 AUDIO
    TITLE "Pictures Of Home"
    PERFORMER "Deep Purple"
    INDEX 01 10:59:04
  TRACK 04 AUDIO
    TITLE "Never Before"
    PERFORMER "Deep Purple"
    INDEX 01 16:05:40
  TRACK 05 AUDIO
    TITLE "Smoke On The Water"
    PERFORMER "Deep Purple"
    INDEX 01 20:09:17
  TRACK 06 AUDIO
    TITLE "Lazy"
    PERFORMER "Deep Purple"
    INDEX 01 25:52:18
  TRACK 07 AUDIO
    TITLE "Space Truckin'"
    PERFORMER "Deep Purple"
    INDEX 01 33:15:29

1973 - Who Do We Think We Are! (24K Gold Limited Edition)


Год: 1970
Год издания: 2005
Страна: UK
Жанр: Hard Rock
Продолжительность: 00:34:40-Лейбл издания: Audio Fidelity
Страна-выпуска диска: USA
Номер по каталогу: AFZ 027-Формат: FLAC
Битрейт аудио: Lossless
Тип рипа: image +.cue
Наличие сканов в содержимом раздачи: да


01. Woman From Tokyo (05:50)
02. Mary Long (04:27)
03. Super Trouper (02:59)
04. Smooth Dancer (04:13)
05. Rat Bat Blue (05:28)
06. Place In Line (06:32)
07. Our Lady (05:14)

лог создания рипа

Exact Audio Copy V1.0 beta 3 from 29. August 2011
Отчёт EAC об извлечении, выполненном 7. февраля 2016, 14:10
Deep Purple / Who Do We Think We Are! (Gold AFZ 027)
Дисковод: hp      DVD-RAM UJ8B1   Adapter: 0  ID: 0
Режим чтения                 : Достоверность
Использование точного потока : Да
Отключение кэша аудио        : Да
Использование указателей C2  : Нет
Коррекция смещения при чтении                     : 6
Способность читать области Lead-in и Lead-out     : Нет
Заполнение пропущенных сэмплов тишиной            : Да
Удаление блоков с тишиной в начале и конце        : Нет
При вычислениях CRC использовались нулевые сэмплы : Да
Интерфейс                                         : Встроенный Win32-интерфейс для Win NT/2000
Выходной формат          : Пользовательский кодировщик
Выбранный битрейт        : 128 kBit/s
Качество                 : Высокий
Добавление ID3-тега      : Нет
Утилита сжатия           : C:\Program Files (x86)\Exact Audio Copy\Flac\flac.exe
Дополнительные параметры : -V -8 -T "Date=%year%" -T "Genre=%genre%" %source%
TOC извлечённого CD
     Трек |   Старт  | Длительность | Начальный сектор | Конечный сектор
    ---------------------------------------------------------------------
       1  |  0:00.00 |    5:49.72   |           0      |      26246
       2  |  5:49.72 |    4:26.30   |       26247      |      46226
       3  | 10:16.27 |    2:58.15   |       46227      |      59591
       4  | 13:14.42 |    4:12.25   |       59592      |      78516
       5  | 17:26.67 |    5:27.33   |       78517      |     103074
       6  | 22:54.25 |    6:31.52   |      103075      |     132451
       7  | 29:26.02 |    5:13.40   |      132452      |     155966
Характеристики диапазона извлечения и сообщения об ошибках
Выбранный диапазон
     Имя файла E:\РАЗДАЧИ\NNM\Deep Purple - The Audio Fidelity Collection\1973 - Who Do We Think We Are! (2005) AFZ 027 24K Gold Limited Edition, USA\Deep Purple - Who Do We Think We Are! (Gold AFZ 027).wav
     Пиковый уровень 99.7 %
     Скорость извлечения 3.9 X
     Качество диапазона 100.0 %
     CRC теста 8DB7D49A
     CRC копии 8DB7D49A
     Копирование... OK
Ошибок не произошло
AccurateRip: сводка
Трек  1  : извлечено точно (доверие 44)  [44DB22D5]  (AR v2)
Трек  2  : извлечено точно (доверие 44)  [9D271391]  (AR v2)
Трек  3  : извлечено точно (доверие 44)  [8D23EC82]  (AR v2)
Трек  4  : извлечено точно (доверие 44)  [9ABC3883]  (AR v2)
Трек  5  : извлечено точно (доверие 44)  [4679CB35]  (AR v2)
Трек  6  : извлечено точно (доверие 44)  [0DD6237E]  (AR v2)
Трек  7  : извлечено точно (доверие 44)  [08CA95CD]  (AR v2)
Все треки извлечены точно
Конец отчёта

содержание индексной карты *cue

REM GENRE "Hard Rock"
REM DATE 1973
REM DISCID 64081F07
REM COMMENT "ExactAudioCopy v1.0b3"
PERFORMER "Deep Purple"
TITLE "Who Do We Think We Are! (Gold AFZ 027)"
FILE "Deep Purple - Who Do We Think We Are! (Gold AFZ 027).flac" WAVE
  TRACK 01 AUDIO
    TITLE "Woman From Tokyo"
    PERFORMER "Deep Purple"
    INDEX 01 00:00:00
  TRACK 02 AUDIO
    TITLE "Mary Long"
    PERFORMER "Deep Purple"
    INDEX 01 05:49:72
  TRACK 03 AUDIO
    TITLE "Super Trouper"
    PERFORMER "Deep Purple"
    INDEX 01 10:16:27
  TRACK 04 AUDIO
    TITLE "Smooth Dancer"
    PERFORMER "Deep Purple"
    INDEX 01 13:14:42
  TRACK 05 AUDIO
    TITLE "Rat Bat Blue"
    PERFORMER "Deep Purple"
    INDEX 01 17:26:67
  TRACK 06 AUDIO
    TITLE "Place In Line"
    PERFORMER "Deep Purple"
    INDEX 01 22:54:25
  TRACK 07 AUDIO
    TITLE "Our Lady"
    PERFORMER "Deep Purple"
    INDEX 01 29:26:02
--

Covers CD

[Профиль] [ЛС]
Показать сообщения:    
Ответить на тему

Текущее время: 10-Дек 14:41

Часовой пояс: UTC + 4



Вы не можете начинать темы
Вы не можете отвечать на сообщения
Вы не можете редактировать свои сообщения
Вы не можете удалять свои сообщения
Вы не можете голосовать в опросах
Вы не можете прикреплять файлы к сообщениям
Вы не можете скачивать файлы
Анализ веб сайтов Яндекс.Метрика Рейтинг@Mail.ru