Тайная жизнь пингвинов / Penguin Highway (2018) WEBRip 1080p | DUB (Мосфильм-Мастер)

Ответить на тему
Статистика раздачи [Обновить пиров]
Размер:  4,49 GB   |    Зарегистрирован:  13 дней   |    .torrent скачан:  8 раз
Сидов:  226  [  0 KB/s  ]   Личеров:  33  [  0 KB/s  ]   Подробная статистика пиров
 
   
 
 
Автор Сообщение

4udaki ®

Оффлайн



Пол: Мужской

Стаж: 4 года 3 месяца

Наличие запрета:

Сообщений: 3816

Откуда: free-tor.com

Отдача: 2 Mb/s

Загрузка: 20 Mb/s

Нажми

Создавать темы 02-Фев-2019 11:45

[Цитировать]

Тайная жизнь пингвинов / Penguin Highway-Год выпуска: 2018
Страна:
Япония
Жанр: аниме, мультфильм, фэнтези, приключения
Продолжительность: 01:53:07
Перевод: Дублированный (профессиональный) | [Мосфильм-Мастер]
Субтитры: отсутствуют-Режиссёр: Исида Хироясу
В ролях:Кана Кита, Ю Аои, Мики Фукуи, Мэгуми Хан, Риэ Кугимия, Мисаки Куно, Хидэтоси Нисидзима, Мамико Ното, Наото Такэнака-Описание: Любознательный четвероклассник Аояма ведет дневник, куда записывает всесвои открытия иэксперименты. Однажды вего родном городе вдали отморского побережья необъяснимым образом появляются пингвины. Ана окраине города возникает некая неземная океаническая сфера. Мальчик берется разгадать этот удивительный феномен, который оказывается связан нетолько сего жизнью, нои ссудьбой всего мира.-Качество: WEBRip 1080p
Формат: MP4 (MPEG-4 AVC)
Видео: 1920x872, 5 120 kb/s, 25.000 FPS, 8 bits
Аудио: AAC LC, 576 kb/s, 6 channels, 48.0 kHz-

Скриншоты

-

Media Info

General
Complete name : D:\Downloads\Movies\Penguin.Highway.WEBRip.1O8Op.mp4
Format : MPEG-4
Format profile : Base Media
Codec ID : isom (isom/iso2/avc1/mp41)
File size : 4.49 GiB
Duration : 1 h 53 min
Overall bit rate : 5 684 kb/s
Writing application : Lavf55.33.100
Video
ID : 1
Format : AVC
Format/Info : Advanced Video Codec
Format profile : [email protected]
Format settings : CABAC / 4 Ref Frames
Format settings, CABAC : Yes
Format settings, ReFrames : 4 frames
Format settings, GOP : M=7, N=50
Codec ID : avc1
Codec ID/Info : Advanced Video Coding
Duration : 1 h 53 min
Bit rate : 5 120 kb/s
Width : 1 920 pixels
Height : 872 pixels
Display aspect ratio : 2.2:1
Frame rate mode : Constant
Frame rate : 25.000 FPS
Color space : YUV
Chroma subsampling : 4:2:0
Bit depth : 8 bits
Scan type : Progressive
Bits/(Pixel*Frame) : 0.122
Stream size : 4.03 GiB (90%)
Writing library : x264 core 142
Encoding settings : cabac=1 / ref=3 / deblock=1:0:0 / analyse=0x3:0x113 / me=hex / subme=7 / psy=1 / psy_rd=1.00:0.00 / mixed_ref=1 / me_range=16 / chroma_me=1 / trellis=1 / 8x8dct=1 / cqm=0 / deadzone=21,11 / fast_pskip=1 / chroma_qp_offset=-2 / threads=48 / lookahead_threads=6 / sliced_threads=0 / nr=0 / decimate=1 / interlaced=0 / bluray_compat=0 / constrained_intra=0 / bframes=6 / b_pyramid=2 / b_adapt=1 / b_bias=0 / direct=1 / weightb=1 / open_gop=0 / weightp=2 / keyint=50 / keyint_min=26 / scenecut=0 / intra_refresh=0 / rc_lookahead=40 / rc=2pass / mbtree=1 / bitrate=5120 / ratetol=1.0 / qcomp=0.60 / qpmin=0 / qpmax=69 / qpstep=4 / cplxblur=20.0 / qblur=0.5 / vbv_maxrate=7680 / vbv_bufsize=20480 / nal_hrd=none / filler=0 / ip_ratio=1.40 / aq=1:1.00
Tagged date : UTC 2019-01-22 18:40:52
Codec configuration box : avcC
Audio
ID : 2
Format : AAC LC
Format/Info : Advanced Audio Codec Low Complexity
Codec ID : mp4a-40-2
Duration : 1 h 53 min
Duration_LastFrame : 43 ms
Bit rate mode : Constant
Bit rate : 576 kb/s
Channel(s) : 6 channels
Channel layout : C L R Ls Rs LFE
Sampling rate : 48.0 kHz
Frame rate : 46.875 FPS (1024 SPF)
Compression mode : Lossy
Stream size : 466 MiB (10%)
Language : Russian
Default : Yes
Alternate group : 1
Tagged date : UTC 2019-01-22 18:40:52
-
[free-tor.com].t19244.torrent 
Торрент: Зарегистрирован [ 2019-02-02 11:45 ] · C9B0A3D13D15CEA5947A6A686E0C27AC60A0DC01

Скачать .torrent

Скачать .torrent

12 KB

Статус: проверено
.torrent скачан: 8 раз
Размер: 4,49 GB
Правила
Skorp10n(02-Фев-19)
Похожие темы
[Профиль] [ЛС]
Показать сообщения:    
Ответить на тему

Текущее время: 16-Фев 01:30

Часовой пояс: UTC + 4



Вы не можете начинать темы
Вы не можете отвечать на сообщения
Вы не можете редактировать свои сообщения
Вы не можете удалять свои сообщения
Вы не можете голосовать в опросах
Вы не можете прикреплять файлы к сообщениям
Вы можете скачивать файлы
Анализ веб сайтов Яндекс.Метрика Рейтинг@Mail.ru